ML
     
  Уважаемый Гость!
Вы можете поддержать проект и зарегистрироваться у наших партнеров - онлайн-стратегия MyLands. При регистрации в игре Вы получите код, который сможете активировать после регистрации на pirat.ca и получить 1000 дублонов.

Ваш код:
e6008d9811a0b6a1393c3dc51ecd7bc35637bc21
 
     

Сумеречные охотники / Shadowhunters / Сезон 1 / Серии: 13 из 13 (Дж. Майлз Дэйл / J. Miles Dale, ...) [2016 г., фэнтези, боевик, драма, ...WEBDLRip] MVO (BaibaKo) + Original (Eng) [Финал сезона]

Ответить на тему
 
Автор
Сообщение

Пост 29-Янв-2016 19:50

[Q] 

kugesan

Сумеречные охотники / Shadowhunters «All the legends are true»- Страна: США
Год выпуска: 2016
Жанр: фэнтези, боевик, драма, ...-Озвучка: Студия
Перевод: Многоголосый закадровый, профессиональный
Оригинальный аудиопоток: английский-Перевод: Мария Назарко и Анна Макаренко (бюро переводов "SM-Group")
Озвучка: Юля Малахова, Юлия Котурбаш, Олекса Мельник и Акмал Гурезов
Монтаж: Павел Дежин-Премьера (мир): 12 января 2016, ...-Режиссер: Дж. Майлз Дэйл / J. Miles Dale, МакДжи / McG, Майрзи Алмас / Mairzee Almas, ...
В главных ролях: Кэтрин МакНамара, Доминик Шервуд, Альберто Розенде, Алан Ван Спрэнг, Джон Кор, Кейтлин Вонг, Мими Кузык ...-Описание фильма:
Невзрачная и ничем не примечательная девушка Клэри Фрэй в свой 18-й день рождения узнает, что она является наследницей древнего семейства Сумеречных Охотников — таинственного клана полулюдей-полуангелов, которые обороняют мир от демонических тварей. После похищения матери девушка вместе со своим другом Саймоном и сумеречным охотником Джейсом пытается ее спасти и… попадает в другую реальность.-Сезон: 1
Серии: 13 из 13 серий
Продолжительность: ~ 00:40:00 мин серия-
Качество видео: WEBDLRip
Формат: AVI
Видеокодек: XviD
Аудиокодек: AC-3
Видео: MPEG-4 Visual at 1500 Кбит/сек: 720 x 400 (1.800) at 23.976 fps, 0.22 Бит/Пиксели
Аудио Rus: AC-3 at 192 Кбит/сек: 2 канала, 48,0 КГц |BaibaKo|
Аудио Eng: AC-3 at 192 Кбит/сек: 2 канала, 48,0 КГц |Original|
- -
  • Чаша смерти (The Mortal Cup)
  • Легкое падение в ад (The Descent Into Hell Is Easy)
  • Вечеринка мертвецов (Dead Man's Party)
  • Повышение АД (Raising Hell)
  • Му-Шу навынос (Moo Shu to Go)
  • О людях и ангелах (Of Men and Angels)
  • Старший аркан (Major Arcana)
  • Дурная кровь (Bad Blood)
  • Восстание (Rise Up)
  • Перевёрнутый мир (This World Inverted)
  • Кровь взывает к крови (Blood Calls to Blood)
  • Малек (Malec)
  • Утренняя звезда (Morning Star)
-
Общее
Полное имя : E:\_Сериалы\_Сериалы\Сумеречные охотники\Shadowhunters.s01.WEB-DLRip.Rus.Eng.BaibaKo\Shadowhunters.s01e01.WEB-DLRip.Rus.Eng.BaibaKo.avi
Формат : AVI
Формат/Информация : Audio Video Interleave
Размер файла : 542 Мбайт
Продолжительность : 39 м.
Общий поток : 1898 Кбит/сек
Программа кодирования : VirtualDubMod 1.5.10.2 (build 2540/release)
Библиотека кодирования : VirtualDubMod build 2540/release
Видео
Идентификатор : 0
Формат : MPEG-4 Visual
Профиль формата : Advanced [email protected]
Параметр BVOP формата : 2
Параметр QPel формата : Нет
Параметр GMC формата : Без точки перехода
Параметр матрицы формата : Default (MPEG)
Идентификатор кодека : XVID
Идентификатор кодека/Подсказка : XviD
Продолжительность : 39 м.
Битрейт : 1500 Кбит/сек
Ширина : 720 пикселей
Высота : 400 пикселей
Соотношение сторон : 16:9
Частота кадров : 23,976 (23976/1000) кадра/сек
Цветовое пространство : YUV
Субдискретизация насыщенности : 4:2:0
Битовая глубина : 8 бит
Тип развёртки : Прогрессивная
Метод сжатия : С потерями
Бит/(Пиксели*Кадры) : 0.217
Размер потока : 428 Мбайт (79%)
Библиотека кодирования : XviD 1.2.0.dev47 (UTC 2006-11-01)
Аудио #1
Идентификатор : 1
Формат : AC-3
Формат/Информация : Audio Coding 3
Расширение режима : CM (complete main)
Параметр Endianness формата : Big
Идентификатор кодека : 2000
Продолжительность : 39 м.
Вид битрейта : Постоянный
Битрейт : 192 Кбит/сек
Каналы : 2 канала
Расположение каналов : Front: L R
Частота : 48,0 КГц
Частота кадров : 31,250 кадров/сек (1536 spf)
Метод сжатия : С потерями
Размер потока : 54,8 Мбайт (10%)
Выравнивание : Разделение по промежуткам
Продолжительность промежутка : 42 мс. (1,00 видеокадр)
Время предзагрузки промежутка : 500 мс.
Аудио #2
Идентификатор : 2
Формат : AC-3
Формат/Информация : Audio Coding 3
Расширение режима : CM (complete main)
Параметр Endianness формата : Big
Идентификатор кодека : 2000
Продолжительность : 39 м.
Вид битрейта : Постоянный
Битрейт : 192 Кбит/сек
Каналы : 2 канала
Расположение каналов : Front: L R
Частота : 48,0 КГц
Частота кадров : 31,250 кадров/сек (1536 spf)
Метод сжатия : С потерями
Размер потока : 54,8 Мбайт (10%)
Выравнивание : Разделение по промежуткам
Продолжительность промежутка : 42 мс. (1,00 видеокадр)
Время предзагрузки промежутка : 500 мс.
-
-Скриншоты:
-
-
Раздача ведётся путём добавления новых серий; при каждом добавлении создаётся новый торрент.
Чтобы начать докачку новой серии, пользователям необходимо сделать следующее:
1. остановить скачивание,
2. удалить старый торрент у себя из клиента (старые серии удалять не надо),
3. скачать новый торрент и запустить его у себя в клиенте вместо старого, при этом указать клиенту путь в старую папку, куда и должно происходить скачивание новых серий.
Ваш клиент при этом должен произвести хеширование (проверку) старой папки (если не производит сам - помогите ему сделать это), и будет докачивать только те серии которых у вас ещё нет. Старые серии при этом не удаляются, а продолжают раздаваться!
Eсли вы уже удалили старые серии, то предотвратить повторную закачку старых серий можно, отжав галочку в соответствующих местах при запуске нового торрента. По возможности, желательно не удалять старые серии как можно дольше, чтобы релизёр не столько продолжал раздавать старые серии, а смог сконцентрироваться на новых.
Совет для тех, кто не хочет ждать перехеширования:
Создайте ещё одну папку рядом с папкой сериала (рядом, а не в ней!!!). Каждую новую серию после удачной загрузки копируйте в новую папку так чтобы ваша основная папка всегда была пуста. Когда ваш новый торрент предложит вам закачать все файлы, выберете только последнюю. Для сидирования же укажите адрес новой папки.
Как закачать отдельный файл из торрента или докачать ранее пропущенные файлы торрента!
-
1. Открыть торрент
2. Снять галки с тех файлов торрента, которые мы не хотим закачивать. Оставляем только на нужных нам файлах (файле).
3. Нажать О.К.
В клиенте utorrent
Инструкция
1) Открыть торрент

2) Снять галки с тех файлов торрента, которые мы не хотим закачивать:
* либо вручную, снимая с каждого файла галку( скрин №1)
* либо, нажав кнопку "Снять метки (Select None)", сняв сразу со всех файлов(скрин №2)
№1

№2

Оставляем только на нужных нам файлах (файле).

3)Нажать О.К
-Добавлена тринадцатая, заключительная, серия первого сезона-
Download / Скачать

Хотите скачать бесплатно? Зарегистрируйтесь на сайте (ссылка на регистрацию). Pirat.ca - самый быстрый торрент трекер в рунете!

Как скачивать  ·   Что такое торрент  ·   Рейтинг и ограничения



Последний раз редактировалось: kugesan (2016-04-09 11:24), всего редактировалось 11 раз(а)

Andriv

Лоцман

Пост 15-Фев-2016 21:08 (спустя 17 дней)

[Q] 

А когда выход 6-й серии?
[Профиль]  [ЛС] 

kugesan ®

56689

Пост 15-Фев-2016 22:14 (спустя 1 час 6 минут)

[Q] 

Andriv, Сериал, в оригинале, выходит по вторникам... плюс 2-3 дня на перевод и озвучивание.

_________________

В мире две бесконечности: вселенная и человеческая глупость - Альберт Эйнштен
«Можно вытащить человека из грязи, но нельзя вытащить грязь из человека»!
[Профиль]  [ЛС] 

Andriv

Лоцман

Пост 17-Фев-2016 17:28 (спустя 1 день 19 часов)

[Q] 

Спасибо, будем ждать.
[Профиль]  [ЛС] 

kugesan ®

56689

Пост 18-Фев-2016 23:07 (спустя 1 день 5 часов)

[Q] 

-
Удалена реклама, в самом начале каждой серии
-

_________________

В мире две бесконечности: вселенная и человеческая глупость - Альберт Эйнштен
«Можно вытащить человека из грязи, но нельзя вытащить грязь из человека»!
[Профиль]  [ЛС] 

avn2015

Корсар

Пост 26-Мар-2016 16:26 (спустя 1 месяц 7 дней)

[Q] 

Спасибо!!!
[Профиль]  [ЛС] 

Раемия

Флибустьер

Пост 30-Мар-2016 19:27 (спустя 4 дня)

[Q] 

Досмотрела до 6 серии и что-то дальше не пошло....заскучала(((

_________________
Любите кроликов!!!…и они отплатят вам тем же…
[Профиль]  [ЛС] 

kugesan ®

56689

Пост 09-Апр-2016 11:25 (спустя 9 дней)

[Q] 

-Добавлена тринадцатая, заключительная, серия первого сезона-

_________________

В мире две бесконечности: вселенная и человеческая глупость - Альберт Эйнштен
«Можно вытащить человека из грязи, но нельзя вытащить грязь из человека»!
[Профиль]  [ЛС] 
Показать сообщения:    
Ответить на тему

Текущее время: Сегодня 01:59

Часовой пояс: GMT + 4



Вы не можете начинать темы
Вы не можете отвечать на сообщения
Вы не можете редактировать свои сообщения
Вы не можете удалять свои сообщения
Вы не можете голосовать в опросах
Вы не можете прикреплять файлы к сообщениям
Вы не можете скачивать файлы

▼ Вниз