ML
     
  Уважаемый Гость!
Вы можете поддержать проект и зарегистрироваться у наших партнеров - онлайн-стратегия MyLands. При регистрации в игре Вы получите код, который сможете активировать после регистрации на pirat.ca и получить 1000 дублонов.

Ваш код:
e93cd9e43017f251127f220889864c05934e61c6
 
     

Плоть и кости / Flesh and Bone / Сезон: 1 / Серии: 1-8 (8) (Алик Сахаров / Alik Sakharov, ...) [2015 г., драма, BDRip, 720p] MVO (Amedia) + Original (Eng) + Sub (Rus, Eng)

Ответить на тему
 
Автор
Сообщение

Пост 01-Фев-2016 22:45

[Q] 

TERMOS

Легенда

-Плоть и кости / Flesh and Bone
«Take no prisoners»
-- Производство: США
Жанр: драма
Год выпуска: 2015 г.
Продолжительность: 8x ~01:00:00
Перевод: Профессиональный (многоголосый, закадровый) [Amedia]
Оригинальный аудиопоток: английский
Режиссер: Алик Сахаров / Alik Sakharov, Адам Дэвидсон / Adam Davidson, Джошуа Марстон / Joshua Marston, ...-В ролях: Сара Хэй, Бен Дэниелс, Эмили Тайра, Ирина Дворовенко, Дэймон Херриман, Джош Хелман, Рэйчел Дайан Уэйнер, Саша Радетски, , Тина Бенко-Описание: Главная героиня Клэр, молодая балерина с тёмным прошлым, получает шанс продолжить карьеру в престижной нью-йоркской балетной труппе. Здесь хорошие новости заканчиваются, и начинается мрачная, жесткая драма, выворачивающая наизнанку гламурный и порочный мир современного балета.
- - -Качество видео: BDRip
Источник: Flesh and Bone S01 1080p Blu-ray AVC TrueHD 5.1-jimsong
Контейнер: MKV
Стандарт разрешения: 720p
Видео кодек: H.264/AVC
Аудио кодек: AC3
Видео: 1280x720 at 23.976 fps, MPEG-4 AVC, ~8200 kbps avg
Аудио: Russian: 48 kHz, AC3, 3/2 (L,C,R,l,r) + LFE ch, ~640.00 kbps avg |Многоголосый закадровый, Amedia|
Аудио #2: English: 48 kHz, AC3, 3/2 (L,C,R,l,r) + LFE ch, ~640.00 kbps avg
Cубтитры: Russian (Amedia), English (Full, SDH)
01. Прорываться / Bulling Through
02. Пушечное мясо / Cannon Fodder
03. Рекогносцировка / Reconnaissance
04. Ночь буги / Boogie Dark
05. Пропавший без вести / M.I.A.
06. "Нецензурная военная аббревиатура" / F.U.B.A.R.
07. Полный парад / Full Dress
08. Выжженная земля / Scorched Earth
Код:
Format                      : Matroska
Format version              : Version 4 / Version 2
File size                   : 4.53 GiB
Duration                    : 1h 6mn
Overall bit rate            : 9 705 Kbps
Movie name                  : Flesh and Bone 01x01 (Bulling Through) - release by messafan for HDCLUB
Encoded date                : UTC 2016-01-31 12:41:49
Writing application         : mkvmerge v6.7.0 ('Back to the Ground') 64bit built on Jan  8 2014 15:10:52
Writing library             : libebml v1.3.0 + libmatroska v1.4.1
Video
ID                          : 1
Format                      : AVC
Format/Info                 : Advanced Video Codec
Format profile              : [email protected]
Format settings, CABAC      : Yes
Format settings, ReFrames   : 9 frames
Codec ID                    : V_MPEG4/ISO/AVC
Duration                    : 1h 6mn
Bit rate                    : 8 232 Kbps
Width                       : 1 280 pixels
Height                      : 720 pixels
Display aspect ratio        : 16:9
Frame rate mode             : Constant
Frame rate                  : 23.976 fps
Color space                 : YUV
Chroma subsampling          : 4:2:0
Bit depth                   : 8 bits
Scan type                   : Progressive
Bits/(Pixel*Frame)          : 0.373
Stream size                 : 3.85 GiB (85%)
Writing library             : x264 core 146 r2538kMod 121396c
Encoding settings           : cabac=1 / ref=9 / deblock=1:-3:-3 / analyse=0x3:0x133 / me=umh / subme=10 / psy=1 / fade_compensate=0.00 / psy_rd=1.00:0.00 / mixed_ref=1 / me_range=24 / chroma_me=1 / trellis=2 / 8x8dct=1 / cqm=0 / deadzone=21,11 / fast_pskip=0 / chroma_qp_offset=-2 / threads=12 / lookahead_threads=2 / sliced_threads=0 / nr=0 / decimate=0 / interlaced=0 / bluray_compat=0 / constrained_intra=0 / fgo=0 / bframes=9 / b_pyramid=2 / b_adapt=2 / b_bias=0 / direct=3 / weightb=1 / open_gop=0 / weightp=2 / keyint=250 / keyint_min=23 / scenecut=40 / intra_refresh=0 / rc_lookahead=60 / rc=crf / mbtree=0 / crf=17.5000 / qcomp=0.65 / qpmin=0 / qpmax=69 / qpstep=4 / vbv_maxrate=62500 / vbv_bufsize=78125 / crf_max=0.0 / nal_hrd=none / filler=0 / ip_ratio=1.30 / pb_ratio=1.20 / aq=3:0.80
Language                    : English
Default                     : Yes
Forced                      : No
Matrix coefficients         : BT.709
Color range                 : Limited
Audio #1
ID                          : 2
Format                      : AC-3
Format/Info                 : Audio Coding 3
Mode extension              : CM (complete main)
Format settings, Endianness : Big
Codec ID                    : A_AC3
Duration                    : 1h 6mn
Bit rate mode               : Constant
Bit rate                    : 640 Kbps
Channel(s)                  : 6 channels
Channel positions           : Front: L C R, Side: L R, LFE
Sampling rate               : 48.0 KHz
Bit depth                   : 16 bits
Compression mode            : Lossy
Stream size                 : 306 MiB (7%)
Title                       : Amedia DD5.1 @ 640kbps
Language                    : Russian
Default                     : Yes
Forced                      : No
Audio #2
ID                          : 3
Format                      : AC-3
Format/Info                 : Audio Coding 3
Mode extension              : CM (complete main)
Format settings, Endianness : Big
Codec ID                    : A_AC3
Duration                    : 1h 6mn
Bit rate mode               : Constant
Bit rate                    : 640 Kbps
Channel(s)                  : 6 channels
Channel positions           : Front: L C R, Side: L R, LFE
Sampling rate               : 48.0 KHz
Bit depth                   : 16 bits
Compression mode            : Lossy
Stream size                 : 306 MiB (7%)
Title                       : English DD5.1 @ 640kbps
Language                    : English
Default                     : No
Forced                      : No
Text #1
ID                          : 4
Format                      : UTF-8
Codec ID                    : S_TEXT/UTF8
Codec ID/Info               : UTF-8 Plain Text
Title                       : Rus sub [Amedia]
Language                    : Russian
Default                     : No
Forced                      : No
Text #2
ID                          : 5
Format                      : UTF-8
Codec ID                    : S_TEXT/UTF8
Codec ID/Info               : UTF-8 Plain Text
Title                       : Eng sub
Language                    : English
Default                     : No
Forced                      : No
Text #3
ID                          : 6
Format                      : UTF-8
Codec ID                    : S_TEXT/UTF8
Codec ID/Info               : UTF-8 Plain Text
Title                       : Eng SDH
Language                    : English
Default                     : No
Forced                      : No
Menu
00:00:00.000                : en:00:00:00.000
00:01:42.019                : en:00:01:42.019
00:10:35.468                : en:00:10:35.468
00:20:10.709                : en:00:20:10.709
00:30:11.643                : en:00:30:11.643
00:39:59.063                : en:00:39:59.063
00:50:26.190                : en:00:50:26.190
01:00:04.601                : en:01:00:04.601
01:02:18.068                : en:01:02:18.068
Download / Скачать

Хотите скачать бесплатно? Зарегистрируйтесь на сайте (ссылка на регистрацию). Pirat.ca - самый быстрый торрент трекер в рунете!

Как скачивать  ·   Что такое торрент  ·   Рейтинг и ограничения

TERMOS ®

Легенда

11995

Пост 05-Фев-2016 13:19 (спустя 3 дня)

[Q] 

А сериал реально хорош! ay Три вечера не пропали зря!

_________________
[Профиль]  [ЛС] 
Показать сообщения:    
Ответить на тему

Текущее время: Сегодня 04:26

Часовой пояс: GMT + 4



Вы не можете начинать темы
Вы не можете отвечать на сообщения
Вы не можете редактировать свои сообщения
Вы не можете удалять свои сообщения
Вы не можете голосовать в опросах
Вы не можете прикреплять файлы к сообщениям
Вы не можете скачивать файлы

▼ Вниз