ML
     
  Уважаемый Гость!
Вы можете поддержать проект и зарегистрироваться у наших партнеров - онлайн-стратегия MyLands. При регистрации в игре Вы получите код, который сможете активировать после регистрации на pirat.ca и получить 1000 дублонов.

Ваш код:
a01a592a88af5f9996a6d1baec61b18a1769954d
 
     

Ходячие мертвецы / The Walking Dead / Сезон 6 / Серии: 16 из 16 (Грег Никотеро / Greg Nicotero ...) [2015г., ужасы, триллер, драма, ..., WEBDLRip] MVO (BaibaKo) + Original (Eng) [Финал сезона]

Ответить на тему
 
Автор
Сообщение

Пост 18-Фев-2016 23:05

[Q] 

kugesan

Ходячие мертвецы / The Walking Dead
«Fight the dead. Fear the living.»
- Русское название: Ходячие мертвецы
Оригинальное название: The Walking Dead
Страна: США
Год выпуска: 2015
Жанр: Ужасы, Триллер, Драма, Приключения ...-Озвучка: Студия
Перевод: Многоголосый закадровый, профессиональный
Оригинальный аудиопоток: английский-Перевод: Мария Назарко и Анна Макаренко (бюро переводов "SM-Group")
Озвучка: Юля Малахова, Юлия Котурбаш, Олекса Мельник и Акмал Гурезов
Монтаж: Павел Дежин-Премьера (мир): 31 октября 2010
Премьера (РФ): 4 ноября 2010-Режиссер: Грег Никотеро / Greg Nicotero, Эрнест Р. Дикерсон / Ernest R. Dickerson, Гай Ферленд / Guy Ferland, ...
В главных ролях: Эндрю Линкольн, Стивен Ян, Чендлер Риггз, Норман Ридус, Мелисса Сюзанн МакБрайд, Лорен Кохэн, Сара Уэйн Кэллис, Лори Холден, Скотт Уилсон, Эмили Кинни ...-Описание фильма:
После страшной болезни, превратившей жителей Земли в зомби, небольшая группа пока еще живых людей изо дня в день борется за выживание в новом, враждебном мире. Под предводительством бывшего полицейского Рика они ищут безопасное для жизни место, но зомби — это не самое страшное, что их ждет, основная опасность — это жестокое внутреннее соперничество среди выживших.-Сезон: 6
Серии: 16 из 16 серий
Продолжительность: ~ 00:43:00 мин серия-
Качество видео: WEBDLRip
Формат: AVI
Видеокодек: XviD
Аудиокодек: AC-3
Видео: MPEG-4 Visual at 1496 Кбит/сек: 720 x 400 (1.800) at 23.976 fps, 0.22 Бит/Пиксели
Аудио Rus: AC-3 at 192 Кбит/сек: 2 канала, 48,0 КГц |BaibaKo|
Аудио Eng: AC-3 at 192 Кбит/сек: 2 канала, 48,0 КГц |Original|
-VA - Ходячие мертвецы
Rameses B - The Walking Dead
Сериал "Ходячие мертвецы / The Walking Dead " на треке Pirat.ca-
  • Снова как в первый раз (First Time Again)
  • Выживи любой ценой (JSS)
  • Спасибо (Thank You)
  • Неважно, где (Here's Not Here)
  • Сейчас (Now)
  • Всегда в ответе за свой выбор (Always Accountable)
  • Берегись! (Heads Up)
  • От начала и до конца (Start to Finish)
  • Выхода нет (No Way Out)
  • Следующий мир (The Next World)
  • Развязанные узлы (Knots Untie)
  • Ещё не завтра (Not Tomorrow Yet)
  • В одной лодке (The Same Boat)
  • Вдвое дальше (Twice as Far)
  • Восток (East)
  • Последний день на земле (Last Day on Earth)
-
Общее
Полное имя : E:\_Сериалы\_Сериалы\Ходячие мертвецы\The.Walking.Dead.s06.WEB-DLRip.Rus.Eng.BaibaKo\The.Walking.Dead.s06e01.WEB-DLRip.Rus.Eng.BaibaKo.avi
Формат : AVI
Формат/Информация : Audio Video Interleave
Размер файла : 877 Мбайт
Продолжительность : 1 ч. 4 м.
Общий поток : 1895 Кбит/сек
Программа кодирования : VirtualDubMod 1.5.10.2 (build 2540/release)
Библиотека кодирования : VirtualDubMod build 2540/release
Видео
Идентификатор : 0
Формат : MPEG-4 Visual
Профиль формата : Advanced [email protected]
Параметр BVOP формата : 2
Параметр QPel формата : Нет
Параметр GMC формата : Без точки перехода
Параметр матрицы формата : Default (MPEG)
Идентификатор кодека : XVID
Идентификатор кодека/Подсказка : XviD
Продолжительность : 1 ч. 4 м.
Битрейт : 1496 Кбит/сек
Ширина : 720 пикселей
Высота : 400 пикселей
Соотношение сторон : 16:9
Частота кадров : 23,976 (23976/1000) кадра/сек
Цветовое пространство : YUV
Субдискретизация насыщенности : 4:2:0
Битовая глубина : 8 бит
Тип развёртки : Прогрессивная
Метод сжатия : С потерями
Бит/(Пиксели*Кадры) : 0.217
Размер потока : 693 Мбайт (79%)
Библиотека кодирования : XviD 1.2.0.dev47 (UTC 2006-11-01)
Аудио #1
Идентификатор : 1
Формат : AC-3
Формат/Информация : Audio Coding 3
Расширение режима : CM (complete main)
Параметр Endianness формата : Big
Идентификатор кодека : 2000
Продолжительность : 1 ч. 4 м.
Вид битрейта : Постоянный
Битрейт : 192 Кбит/сек
Каналы : 2 канала
Расположение каналов : Front: L R
Частота : 48,0 КГц
Частота кадров : 31,250 кадров/сек (1536 spf)
Метод сжатия : С потерями
Задержка видео : 31 мс.
Размер потока : 88,9 Мбайт (10%)
Выравнивание : Разделение по промежуткам
Продолжительность промежутка : 42 мс. (1,00 видеокадр)
Время предзагрузки промежутка : 500 мс.
Аудио #2
Идентификатор : 2
Формат : AC-3
Формат/Информация : Audio Coding 3
Расширение режима : CM (complete main)
Параметр Endianness формата : Big
Идентификатор кодека : 2000
Продолжительность : 1 ч. 4 м.
Вид битрейта : Постоянный
Битрейт : 192 Кбит/сек
Каналы : 2 канала
Расположение каналов : Front: L R
Частота : 48,0 КГц
Частота кадров : 31,250 кадров/сек (1536 spf)
Метод сжатия : С потерями
Задержка видео : 31 мс.
Размер потока : 88,9 Мбайт (10%)
Выравнивание : Разделение по промежуткам
Продолжительность промежутка : 42 мс. (1,00 видеокадр)
Время предзагрузки промежутка : 500 мс.
-
-Скриншоты:
-
-
-
Раздача ведётся путём добавления новых серий; при каждом добавлении создаётся новый торрент.
Чтобы начать докачку новой серии, пользователям необходимо сделать следующее:
1. остановить скачивание,
2. удалить старый торрент у себя из клиента (старые серии удалять не надо),
3. скачать новый торрент и запустить его у себя в клиенте вместо старого, при этом указать клиенту путь в старую папку, куда и должно происходить скачивание новых серий.
Ваш клиент при этом должен произвести хеширование (проверку) старой папки (если не производит сам - помогите ему сделать это), и будет докачивать только те серии которых у вас ещё нет. Старые серии при этом не удаляются, а продолжают раздаваться!
Eсли вы уже удалили старые серии, то предотвратить повторную закачку старых серий можно, отжав галочку в соответствующих местах при запуске нового торрента. По возможности, желательно не удалять старые серии как можно дольше, чтобы релизёр не столько продолжал раздавать старые серии, а смог сконцентрироваться на новых.
Совет для тех, кто не хочет ждать перехеширования:
Создайте ещё одну папку рядом с папкой сериала (рядом, а не в ней!!!). Каждую новую серию после удачной загрузки копируйте в новую папку так чтобы ваша основная папка всегда была пуста. Когда ваш новый торрент предложит вам закачать все файлы, выберете только последнюю. Для сидирования же укажите адрес новой папки.
Как закачать отдельный файл из торрента или докачать ранее пропущенные файлы торрента!
-
1. Открыть торрент
2. Снять галки с тех файлов торрента, которые мы не хотим закачивать. Оставляем только на нужных нам файлах (файле).
3. Нажать О.К.
В клиенте utorrent
Инструкция
1) Открыть торрент

2) Снять галки с тех файлов торрента, которые мы не хотим закачивать:
* либо вручную, снимая с каждого файла галку( скрин №1)
* либо, нажав кнопку "Снять метки (Select None)", сняв сразу со всех файлов(скрин №2)
№1

№2

Оставляем только на нужных нам файлах (файле).

3)Нажать О.К
-Добавлена шестнадцатая, заключительная, серия шестого сезона -
Download / Скачать

Хотите скачать бесплатно? Зарегистрируйтесь на сайте (ссылка на регистрацию). Pirat.ca - самый быстрый торрент трекер в рунете!

Как скачивать  ·   Что такое торрент  ·   Рейтинг и ограничения



Последний раз редактировалось: kugesan (2016-04-06 01:24), всего редактировалось 7 раз(а)

gross1978

6970

Пост 19-Фев-2016 00:14 (спустя 1 час 8 минут)

[Q] 

Девятая серия была душевная, пробило....

_________________
Употребляйте правильно слова, и вы избавите мир от половины недоразумений (Р.Декарт).
Переводим фильмы тут: Создание тем на перевод (форум)
Если у Вас есть переводы в авторском, которых нет в моих раздачах и желание ими поделиться, пишите, добавим:)
[Профиль]  [ЛС] 

cybersash

Морской Волк

Пост 16-Мар-2016 09:42 (спустя 26 дней)

[Q] 

Ни одной серии не видел, вот думаю стоит ли начинать.
[Профиль]  [ЛС] 

li_stitch

Корсар

Пост 17-Мар-2016 00:43 (спустя 15 часов)

[Q] 

Ужос кошмарный, смотрел пару серий, брррр.... Спасибо!!! На любителя
[Профиль]  [ЛС] 

kugesan ®

56691

Пост 06-Апр-2016 01:24 (спустя 20 дней)

[Q] 

-Добавлена шестнадцатая, заключительная, серия шестого сезона -

_________________

В мире две бесконечности: вселенная и человеческая глупость - Альберт Эйнштен
«Можно вытащить человека из грязи, но нельзя вытащить грязь из человека»!
[Профиль]  [ЛС] 

Пост 06-Апр-2016 03:13 (спустя 1 час 48 минут)

Топик был перенесен из форума Сериалы в эфире в форум Зарубежные сериалы
Андря
 
Показать сообщения:    
Ответить на тему

Текущее время: Сегодня 09:49

Часовой пояс: GMT + 4



Вы не можете начинать темы
Вы не можете отвечать на сообщения
Вы не можете редактировать свои сообщения
Вы не можете удалять свои сообщения
Вы не можете голосовать в опросах
Вы не можете прикреплять файлы к сообщениям
Вы не можете скачивать файлы

▼ Вниз