ML
     
  Уважаемый Гость!
Вы можете поддержать проект и зарегистрироваться у наших партнеров - онлайн-стратегия MyLands. При регистрации в игре Вы получите код, который сможете активировать после регистрации на pirat.ca и получить 1000 дублонов.

Ваш код:
11f49771fdf057c9d51610e4a0925c3b46ddb655
 
     

Счастливчик / Stan Lee's Lucky Man / Сезон 1 / Серии: 10 из 10 (Дэвид Кэффри / David Caffrey ...) [2016г., фантастика, боевик, ... HDTVRip ] MVO (OMSKBIRD) [Финал сезона]

Ответить на тему
 
Автор
Сообщение

Пост 22-Фев-2016 00:17

[Q] 

kugesan

Счастливчик / Stan Lee's Lucky Man «He didn't see the future. He heard it»- Производство: Великобритания
Год выпуска: 2016
Жанр: фантастика, боевик, ...
-
Премьера (мир): 22 января 2016-Озвучка: Студия
Перевод: Многоголосый закадровый, профессиональный
-
Режиссер: Дэвид Кэффри / David Caffrey, Энди де Эммони / Andy DeEmmony, Брайан Келли / Brian Kelly, ...
В главных ролях: Джеймс Несбитт, Стефен Хэйгэн, Джозеф Гатт, Лиза Диллон, Ли Николас Харрис, Мэтт Таунсенд, Эндрю Ли Поттс, Пол Блэкуэлл, Гарри Марриотт, Лаура Свифт ...
-
Описание фильма:
Гарри Клейтон — крайне невезучий в работе и личной жизни полицейский из лондонского Департамента уголовного розыска. Однажды Гарри встречает таинственную незнакомку, которая дарит ему древний браслет. Обладатель этой непростой побрякушки получает способность контролировать удачу. Но у любого подобного подарка есть своя цена.
-
Сезон: 1
Серии: 10 из 10 серий
Продолжительность: ~ 00:44:00 мин серия
-
Качество видео: HDTVRip
Формат: AVI
Видеокодек: XviD
Аудиокодек: AC-3
Видео: MPEG-4 Visual at 1488 Кбит/сек: 720 x 400 (1.800) at 25.000 fps, 0.21 Бит/Пиксели
Аудио Rus: AC-3 at 128 Кбит/сек: 2 канала, 44,1 КГц|OMSKBIRD|
- -
  • Больше Янь, чем Инь (More Yang Than Yin)
  • Кто то выигрывает, кто то проигрывает (Win Some, Lose Some)
  • Сглаз (Evil Eye)
  • Высшие Силы (A Higher Power)
  • Пять (Five)
  • Шесть (Six)
  • Семь (Seven)
  • Восемь (Eight)
  • Девять (Nine)
  • Десять (Ten)
-
Общее
Полное имя : E:\_Сериалы\_Сериалы\Счастливчик\stan.lees.lucky.man.s01e01.HDTVRip.avi
Формат : AVI
Формат/Информация : Audio Video Interleave
Размер файла : 518 Мбайт
Продолжительность : 44 м.
Общий поток : 1626 Кбит/сек
Программа кодирования : VirtualDubMod 1.5.10.3 | www.virtualdub-fr.org || (build 2550/release)
Библиотека кодирования : VirtualDubMod build 2550/release
Видео
Идентификатор : 0
Формат : MPEG-4 Visual
Профиль формата : Advanced [email protected]
Параметр BVOP формата : 2
Параметр QPel формата : Нет
Параметр GMC формата : Без точки перехода
Параметр матрицы формата : Default (MPEG)
Идентификатор кодека : XVID
Идентификатор кодека/Подсказка : XviD
Продолжительность : 44 м.
Битрейт : 1488 Кбит/сек
Ширина : 720 пикселей
Высота : 400 пикселей
Соотношение сторон : 16:9
Частота кадров : 25,000 кадров/сек
Цветовое пространство : YUV
Субдискретизация насыщенности : 4:2:0
Битовая глубина : 8 бит
Тип развёртки : Прогрессивная
Метод сжатия : С потерями
Бит/(Пиксели*Кадры) : 0.207
Размер потока : 475 Мбайт (92%)
Библиотека кодирования : XviD 1.2.1 (UTC 2008-12-04)
Аудио
Идентификатор : 1
Формат : AC-3
Формат/Информация : Audio Coding 3
Расширение режима : CM (complete main)
Параметр Endianness формата : Big
Идентификатор кодека : 2000
Продолжительность : 44 м.
Вид битрейта : Постоянный
Битрейт : 128 Кбит/сек
Каналы : 2 канала
Расположение каналов : Front: L R
Частота : 44,1 КГц
Частота кадров : 28,711 кадров/сек (1536 spf)
Метод сжатия : С потерями
Размер потока : 40,8 Мбайт (8%)
Выравнивание : Разделение по промежуткам
Продолжительность промежутка : 40 мс. (1,00 видеокадр)
Время предзагрузки промежутка : 500 мс.
-
-Скриншоты:
-
-
Раздача ведётся путём добавления новых серий; при каждом добавлении создаётся новый торрент.
Чтобы начать докачку новой серии, пользователям необходимо сделать следующее:
1. остановить скачивание,
2. удалить старый торрент у себя из клиента (старые серии удалять не надо),
3. скачать новый торрент и запустить его у себя в клиенте вместо старого, при этом указать клиенту путь в старую папку, куда и должно происходить скачивание новых серий.
Ваш клиент при этом должен произвести хеширование (проверку) старой папки (если не производит сам - помогите ему сделать это), и будет докачивать только те серии которых у вас ещё нет. Старые серии при этом не удаляются, а продолжают раздаваться!
Eсли вы уже удалили старые серии, то предотвратить повторную закачку старых серий можно, отжав галочку в соответствующих местах при запуске нового торрента. По возможности, желательно не удалять старые серии как можно дольше, чтобы релизёр не столько продолжал раздавать старые серии, а смог сконцентрироваться на новых.
Совет для тех, кто не хочет ждать перехеширования:
Создайте ещё одну папку рядом с папкой сериала (рядом, а не в ней!!!). Каждую новую серию после удачной загрузки копируйте в новую папку так чтобы ваша основная папка всегда была пуста. Когда ваш новый торрент предложит вам закачать все файлы, выберете только последнюю. Для сидирования же укажите адрес новой папки.
Как закачать отдельный файл из торрента или докачать ранее пропущенные файлы торрента!
-
1. Открыть торрент
2. Снять галки с тех файлов торрента, которые мы не хотим закачивать. Оставляем только на нужных нам файлах (файле).
3. Нажать О.К.
В клиенте utorrent
Инструкция
1) Открыть торрент

2) Снять галки с тех файлов торрента, которые мы не хотим закачивать:
* либо вручную, снимая с каждого файла галку( скрин №1)
* либо, нажав кнопку "Снять метки (Select None)", сняв сразу со всех файлов(скрин №2)
№1

№2

Оставляем только на нужных нам файлах (файле).

3)Нажать О.К
-Добавлена десятая, заключительная, серия первого сезона-
Download / Скачать

Хотите скачать бесплатно? Зарегистрируйтесь на сайте (ссылка на регистрацию). Pirat.ca - самый быстрый торрент трекер в рунете!

Как скачивать  ·   Что такое торрент  ·   Рейтинг и ограничения



Последний раз редактировалось: kugesan (2016-04-04 19:37), всего редактировалось 3 раз(а)

MikeB

Гроза морей

Пост 29-Мар-2016 00:39 (спустя 1 месяц 7 дней)

[Q] 

интересный сериал
[Профиль]  [ЛС] 

kugesan ®

56710

Пост 04-Апр-2016 19:35 (спустя 6 дней)

[Q] 

-Добавлена десятая, заключительная, серия первого сезона-

_________________

В мире две бесконечности: вселенная и человеческая глупость - Альберт Эйнштен
«Можно вытащить человека из грязи, но нельзя вытащить грязь из человека»!
[Профиль]  [ЛС] 

umfal

Шкипер

Пост 06-Апр-2016 04:40 (спустя 1 день 9 часов)

[Q] 

Выкачиваю, что по анонсам продолжения известно? Автору респект!!!
[Профиль]  [ЛС] 
Показать сообщения:    
Ответить на тему

Текущее время: Сегодня 03:08

Часовой пояс: GMT + 4



Вы не можете начинать темы
Вы не можете отвечать на сообщения
Вы не можете редактировать свои сообщения
Вы не можете удалять свои сообщения
Вы не можете голосовать в опросах
Вы не можете прикреплять файлы к сообщениям
Вы не можете скачивать файлы

▼ Вниз