ML
     
  Уважаемый Гость!
Вы можете поддержать проект и зарегистрироваться у наших партнеров - онлайн-стратегия MyLands. При регистрации в игре Вы получите код, который сможете активировать после регистрации на pirat.ca и получить 1000 дублонов.

Ваш код:
db0e0ad91548759ffeb9bb88bed405e1a4b3c165
 
     

11.22.63 / 11.22.63 / Мини-сериал / Серии: 1-8 (8) (Джеймс Стронг / James Strong, ...) [2016 г., фантастика, триллер, детектив, HDTV, 1080p] MVO (LostFilm, NewStudio) + Original (Eng) + Sub (Eng)

Ответить на тему
 
Автор
Сообщение

Пост 25-Фев-2016 00:40

[Q] 

TERMOS

Легенда

-11.22.63 / 11.22.63
(Мини-сериал)
-- Производство: США
Жанр: фантастика, триллер, детектив
Год выпуска: 2016 г.
Продолжительность: 8х ~01:00:00
Перевод: Профессиональный (многоголосый, закадровый) [LostFilm]
Перевод 2: Профессиональный (многоголосый, закадровый) [NewStudio]
Режиссер: Джеймс Стронг / James Strong, Фред Туа / Fred Toye, Джеймс Кент / James Kent, ...-В ролях: Джеймс Франко, Крис Купер, Джош Дюамель, Люси Фрай, Сара Гадон, Черри Джонс, Т.Р. Найт, Джордж МакКэй, Даниэль Уэббер, ...-Описание: Фантастический фильм по роману Стивена Кинга «11/22/63». Джейк Эппинг – учитель английского языка в средней школе. Один из его учеников пишет эссе о том, что случилось 50 лет назад. Отец одного мальчика пришел домой пьяным и забил молотком свою жену, двух сыновей и дочь. Мальчик остался жив, но с тех пор хромает. Друг Джейка предлагает ему отправиться в 1958 год и предотвратить убийство президента Джона Кеннеди. Джейк не только спасает семью того мальчика, но и выслеживает убийцу Кеннеди.
- -Качество видео: HDTV
Источник: DIMENSION/NTb
Контейнер: MKV
Стандарт разрешения: 1080p
Видео кодек: H.264/AVC
Аудио кодек: AC3
Видео: 1920x964 at 23.976 fps, ~9000 kbps avg
Аудио: Russian: 48 kHz, AC3, 3/2 (L,C,R,l,r) + LFE ch, ~640.00 kbps avg |Многоголосый закадровый, LostFilm|
Аудио #2: Russian: 48 kHz, AC3, 3/2 (L,C,R,l,r) + LFE ch, ~384.00 kbps avg |Многоголосый закадровый, NewStudio|
Аудио #3: English: 48 kHz, AC3, 3/2 (L,C,R,l,r) + LFE ch, ~640.00 kbps avg
Cубтитры: English
01. Кроличья нора / The Rabbit Hole
02. Бойня / The Kill Floor
03. Другие голоса, другие комнаты / Other Voices, Other Rooms
04. Глаза Техаса / Eyes of Texas
05. Правда / Truth
06. С днем рождения, Ли Харви Освальд / Happy Birthday, Lee Harvey Oswald
07. Солдатик / Soldier
08. Тот самый день / The Day in Question
Код:
Format                      : Matroska
Format version              : Version 4 / Version 2
File size                   : 6.10 GiB
Duration                    : 1h 20mn
Overall bit rate            : 10.8 Mbps
Encoded date                : UTC 2016-03-27 17:04:22
Writing application         : mkvmerge v6.0.0 ('Coming Up For Air') built on Jan 20 2013 09:52:00
Writing library             : libebml v1.3.0 + libmatroska v1.4.0
DURATION                    : 01:20:26.340000000
NUMBER_OF_FRAMES            : 1359
NUMBER_OF_BYTES             : 35990
_STATISTICS_WRITING_APP     : mkvmerge v8.7.0 ('All of the above') 64bit
_STATISTICS_WRITING_DATE_UT : 2016-02-20 12:19:46
_STATISTICS_TAGS            : BPS DURATION NUMBER_OF_FRAMES NUMBER_OF_BYTES
Video
ID                          : 1
Format                      : AVC
Format/Info                 : Advanced Video Codec
Format profile              : [email protected]
Format settings, CABAC      : Yes
Format settings, ReFrames   : 4 frames
Codec ID                    : V_MPEG4/ISO/AVC
Duration                    : 1h 20mn
Bit rate                    : 8 944 Kbps
Width                       : 1 920 pixels
Height                      : 964 pixels
Display aspect ratio        : 1.992
Frame rate mode             : Constant
Frame rate                  : 23.976 fps
Color space                 : YUV
Chroma subsampling          : 4:2:0
Bit depth                   : 8 bits
Scan type                   : Progressive
Bits/(Pixel*Frame)          : 0.202
Stream size                 : 5.04 GiB (83%)
Writing library             : x264 core 148 r2638 7599210
Encoding settings           : cabac=1 / ref=4 / deblock=1:-3:-3 / analyse=0x3:0x133 / me=umh / subme=11 / psy=1 / psy_rd=1.00:0.00 / mixed_ref=1 / me_range=32 / chroma_me=1 / trellis=2 / 8x8dct=1 / cqm=0 / deadzone=21,11 / fast_pskip=0 / chroma_qp_offset=-2 / threads=20 / lookahead_threads=2 / sliced_threads=0 / nr=0 / decimate=1 / interlaced=0 / bluray_compat=0 / constrained_intra=0 / bframes=5 / b_pyramid=2 / b_adapt=2 / b_bias=0 / direct=3 / weightb=1 / open_gop=0 / weightp=2 / keyint=250 / keyint_min=23 / scenecut=40 / intra_refresh=0 / rc_lookahead=60 / rc=crf / mbtree=1 / crf=17.0 / qcomp=0.60 / qpmin=0 / qpmax=69 / qpstep=4 / ip_ratio=1.40 / aq=1:1.00
Language                    : English
Default                     : Yes
Forced                      : No
Matrix coefficients         : BT.709
Color range                 : Limited
DURATION                    : 01:20:41.796000000
NUMBER_OF_FRAMES            : 116087
NUMBER_OF_BYTES             : 5541599352
_STATISTICS_WRITING_APP     : mkvmerge v8.7.0 ('All of the above') 64bit
_STATISTICS_WRITING_DATE_UT : 2016-02-20 12:19:46
_STATISTICS_TAGS            : BPS DURATION NUMBER_OF_FRAMES NUMBER_OF_BYTES
Audio #1
ID                          : 2
Format                      : AC-3
Format/Info                 : Audio Coding 3
Mode extension              : CM (complete main)
Format settings, Endianness : Big
Codec ID                    : A_AC3
Duration                    : 1h 20mn
Bit rate mode               : Constant
Bit rate                    : 640 Kbps
Channel(s)                  : 6 channels
Channel positions           : Front: L C R, Side: L R, LFE
Sampling rate               : 48.0 KHz
Bit depth                   : 16 bits
Compression mode            : Lossy
Stream size                 : 369 MiB (6%)
Title                       : LostFilm
Language                    : Russian
Default                     : Yes
Forced                      : No
Audio #2
ID                          : 3
Format                      : AC-3
Format/Info                 : Audio Coding 3
Mode extension              : CM (complete main)
Format settings, Endianness : Big
Codec ID                    : A_AC3
Duration                    : 1h 20mn
Bit rate mode               : Constant
Bit rate                    : 384 Kbps
Channel(s)                  : 6 channels
Channel positions           : Front: L C R, Side: L R, LFE
Sampling rate               : 48.0 KHz
Bit depth                   : 16 bits
Compression mode            : Lossy
Stream size                 : 222 MiB (4%)
Title                       : NewStudio
Language                    : Russian
Default                     : No
Forced                      : No
Audio #3
ID                          : 4
Format                      : AC-3
Format/Info                 : Audio Coding 3
Mode extension              : CM (complete main)
Format settings, Endianness : Big
Codec ID                    : A_AC3
Duration                    : 1h 20mn
Bit rate mode               : Constant
Bit rate                    : 640 Kbps
Channel(s)                  : 6 channels
Channel positions           : Front: L C R, Side: L R, LFE
Sampling rate               : 48.0 KHz
Bit depth                   : 16 bits
Compression mode            : Lossy
Stream size                 : 369 MiB (6%)
Language                    : English
Default                     : No
Forced                      : No
Text
ID                          : 5
Format                      : UTF-8
Codec ID                    : S_TEXT/UTF8
Codec ID/Info               : UTF-8 Plain Text
Language                    : English
Default                     : No
Forced                      : No
Download / Скачать

Хотите скачать бесплатно? Зарегистрируйтесь на сайте (ссылка на регистрацию). Pirat.ca - самый быстрый торрент трекер в рунете!

Как скачивать  ·   Что такое торрент  ·   Рейтинг и ограничения



Последний раз редактировалось: TERMOS (2016-04-12 21:45), всего редактировалось 5 раз(а)

TERMOS ®

Легенда

12068

Пост 26-Фев-2016 20:15 (спустя 1 день 19 часов)

[Q] 

Добавлена 2-я серия. Обновите торрент-файл!

_________________
[Профиль]  [ЛС] 

Pirrama

34

Пост 27-Фев-2016 16:03 (спустя 19 часов)

[Q] 

Спасибо! Жду выхода всех серий.

_________________
Один видит в луже только лужу, а другой, глядя в лужу, видит звезды.
[Профиль]  [ЛС] 

rafael_achilov

Лоцман

Пост 27-Фев-2016 22:09 (спустя 6 часов)

[Q] 

Всем качать!!! понравился сериал
[Профиль]  [ЛС] 

TERMOS ®

Легенда

12068

Пост 03-Мар-2016 21:10 (спустя 4 дня)

[Q] 

Добавлена 3-я серия. Обновите торрент-файл!

_________________
[Профиль]  [ЛС] 

TERMOS ®

Легенда

12068

Пост 16-Мар-2016 12:19 (спустя 12 дней)

[Q] 

Добавлена 4-я серия. Обновите торрент-файл!

_________________
[Профиль]  [ЛС] 

bioclown

Корсар

Пост 25-Мар-2016 17:28 (спустя 9 дней)

[Q] 

Спасибо, слышал про этот сериал, пока затишье с новыми сериями у других, самое время оценить этот
Добавлено спустя 1 час 13 минут 25 секунд:
Скорости нет совсем(((
[Профиль]  [ЛС] 

TERMOS ®

Легенда

12068

Пост 27-Мар-2016 22:34 (спустя 2 дня 5 часов)

[Q] 

Раздача полностью обновлена - замена дорог от NewStudio (теперь без рекламы) + добавлены 5-6 серии. Обновите торрент-файл!

_________________
[Профиль]  [ЛС] 

TERMOS ®

Легенда

12068

Пост 02-Апр-2016 21:20 (спустя 5 дней)

[Q] 

Добавлена 7-я серия. Обновите торрент-файл!

_________________
[Профиль]  [ЛС] 

TERMOS ®

Легенда

12068

Пост 12-Апр-2016 21:46 (спустя 10 дней)

[Q] 

Добавлена 8-я серия. Финал сериала! Обновите торрент-файл!

_________________
[Профиль]  [ЛС] 
Показать сообщения:    
Ответить на тему

Текущее время: Сегодня 08:05

Часовой пояс: GMT + 4



Вы не можете начинать темы
Вы не можете отвечать на сообщения
Вы не можете редактировать свои сообщения
Вы не можете удалять свои сообщения
Вы не можете голосовать в опросах
Вы не можете прикреплять файлы к сообщениям
Вы не можете скачивать файлы

▼ Вниз