ML
     
  Уважаемый Гость!
Вы можете поддержать проект и зарегистрироваться у наших партнеров - онлайн-стратегия MyLands. При регистрации в игре Вы получите код, который сможете активировать после регистрации на pirat.ca и получить 1000 дублонов.

Ваш код:
a261790f23fb05d13d060bdee9cb70d1451a6d3d
 
     

Лучше звоните Солу / Better Call Saul / Сезон 2 / Серии: 10 из 10 (Адам Бернштейн / Adam Bernstein, ...) [2016г., драма, криминал, ... WEB-DLRip] MVO (Кубик в Кубе) + Original (Eng) [Финал сезона]

Ответить на тему
 
Автор
Сообщение

Пост 25-Фев-2016 17:24

[Q] 

kugesan

Лучше звоните Солу / Better Call Saul - Русское название: Лучше звоните Солу
Оригинальное название: Better Call Saul
Страна: США
Год выпуска: 2016
Жанр: драма, криминал, ...-Подготовка релиза: Студия
Озвучка:
Перевод: Многоголосый закадровый, профессиональный
Оригинальный аудиопоток: английский-Премьера (мир): 8 февраля 2015, ...
Премьера (РФ): 5 апреля 2015-Режиссер: Адам Бернштейн / Adam Bernstein, Лариса Кондрацки / Larysa Kondracki, Томас Шнауз / Thomas Schnauz, ...
В главных ролях: Боб Оденкёрк, Джонатан Бэнкс, Ри Сихорн, Майкл МакКин, Патрик Фабиан, Майкл Мэндо, Стив Ларесэ, Джули Энн Эмери, Керри Кондон, Джереми Шамос ...-Описание фильма:
Сериал «Лучше звоните Солу» рассказывает историю Сола Гудмена, одного из персонажей криминального телесериала «Во все тяжкие».
Этот эксцентричный адвокат по уголовным делам, роль которого, как и в оригинальном сериале, исполняет актер Боб Оденкирк, имеет репутацию человека ушлого и изворотливого, готового продать душу хоть самому дьяволу, но вытащить своих клиентов из проблем. В сериале «Лучше звоните Солу» зрителю предстоит узнать о тех испытаниях и невзгодах, что преследовали Сола, до того как он познакомился с главным персонажем «Во все тяжкие» Уолтером Уайтом, в то время, когда он предпринимал шаги для открытия собственной адвокатской конторы.-Сезон: 2
Серии: 10 из 10 серий
Продолжительность: ~ 00:47:00 мин серия-
Качество видео: WEB-DLRip
Формат: AVI
Видеокодек: XviD
Аудио кодек: AC-3
Видео: MPEG-4 Visual at 1500 Кбит/сек: 720 x 400 (2.000) at 23.976 fps: 0.22 Бит/Пиксели
Аудио Rus: AC-3 at 192 Кбит/сек: 2 канала, 48,0 КГц |Кубик в Кубе|
Аудио Eng: AC-3 at 192 Кбит/сек: 2 канала, 48,0 КГц |Original|
- -
  • Переключатель (Switch)
  • Коблер (Cobbler)
  • Амарильо (Amarillo)
  • По-взрослому (Gloves Off)
  • Бали Хаи (Bali Ha'i)
  • Надутый (Inflatable)
  • Фифи (Fifi)
  • Пригвождённый (Nailed)
  • Клик (Klick)
-
Общее
Полное имя : E:\_Сериалы\_Сериалы\Лучше звоните Солу\Better.Call.Saul.S02.WEBRip.Rus.Eng.KvK\Better.Call.Saul.S02E01.WEBRip.Rus.Eng.KvK.avi
Формат : AVI
Формат/Информация : Audio Video Interleave
Размер файла : 640 Мбайт
Продолжительность : 47 м.
Общий поток : 1898 Кбит/сек
Программа кодирования : VirtualDubMod 1.5.10.2 (build 2540/release)
Библиотека кодирования : VirtualDubMod build 2540/release
Видео
Идентификатор : 0
Формат : MPEG-4 Visual
Профиль формата : Advanced [email protected]
Параметр BVOP формата : 2
Параметр QPel формата : Нет
Параметр GMC формата : Без точки перехода
Параметр матрицы формата : Default (MPEG)
Идентификатор кодека : XVID
Идентификатор кодека/Подсказка : XviD
Продолжительность : 47 м.
Битрейт : 1500 Кбит/сек
Ширина : 720 пикселей
Высота : 400 пикселей
Соотношение сторон : 16:9
Частота кадров : 23,976 (23976/1000) кадра/сек
Цветовое пространство : YUV
Субдискретизация насыщенности : 4:2:0
Битовая глубина : 8 бит
Тип развёртки : Прогрессивная
Метод сжатия : С потерями
Бит/(Пиксели*Кадры) : 0.217
Размер потока : 506 Мбайт (79%)
Библиотека кодирования : XviD 1.2.0.dev47 (UTC 2006-11-01)
Аудио #1
Идентификатор : 1
Формат : AC-3
Формат/Информация : Audio Coding 3
Расширение режима : CM (complete main)
Параметр Endianness формата : Big
Идентификатор кодека : 2000
Продолжительность : 47 м.
Вид битрейта : Постоянный
Битрейт : 192 Кбит/сек
Каналы : 2 канала
Расположение каналов : Front: L R
Частота : 48,0 КГц
Частота кадров : 31,250 кадров/сек (1536 spf)
Метод сжатия : С потерями
Размер потока : 64,7 Мбайт (10%)
Выравнивание : Разделение по промежуткам
Продолжительность промежутка : 42 мс. (1,00 видеокадр)
Время предзагрузки промежутка : 500 мс.
Аудио #2
Идентификатор : 2
Формат : AC-3
Формат/Информация : Audio Coding 3
Расширение режима : CM (complete main)
Параметр Endianness формата : Big
Идентификатор кодека : 2000
Продолжительность : 47 м.
Вид битрейта : Постоянный
Битрейт : 192 Кбит/сек
Каналы : 2 канала
Расположение каналов : Front: L R
Частота : 48,0 КГц
Частота кадров : 31,250 кадров/сек (1536 spf)
Метод сжатия : С потерями
Размер потока : 64,7 Мбайт (10%)
Выравнивание : Разделение по промежуткам
Продолжительность промежутка : 42 мс. (1,00 видеокадр)
Время предзагрузки промежутка : 500 мс.
-
-Скриншоты:
-
-
Раздача ведётся путём добавления новых серий; при каждом добавлении создаётся новый торрент.
Чтобы начать докачку новой серии, пользователям необходимо сделать следующее:
1. остановить скачивание,
2. удалить старый торрент у себя из клиента (старые серии удалять не надо),
3. скачать новый торрент и запустить его у себя в клиенте вместо старого, при этом указать клиенту путь в старую папку, куда и должно происходить скачивание новых серий.
Ваш клиент при этом должен произвести хеширование (проверку) старой папки (если не производит сам - помогите ему сделать это), и будет докачивать только те серии которых у вас ещё нет. Старые серии при этом не удаляются, а продолжают раздаваться!
Eсли вы уже удалили старые серии, то предотвратить повторную закачку старых серий можно, отжав галочку в соответствующих местах при запуске нового торрента. По возможности, желательно не удалять старые серии как можно дольше, чтобы релизёр не столько продолжал раздавать старые серии, а смог сконцентрироваться на новых.
Совет для тех, кто не хочет ждать перехеширования:
Создайте ещё одну папку рядом с папкой сериала (рядом, а не в ней!!!). Каждую новую серию после удачной загрузки копируйте в новую папку так чтобы ваша основная папка всегда была пуста. Когда ваш новый торрент предложит вам закачать все файлы, выберете только последнюю. Для сидирования же укажите адрес новой папки.
Как закачать отдельный файл из торрента или докачать ранее пропущенные файлы торрента!
-
1. Открыть торрент
2. Снять галки с тех файлов торрента, которые мы не хотим закачивать. Оставляем только на нужных нам файлах (файле).
3. Нажать О.К.
В клиенте utorrent
Инструкция
1) Открыть торрент

2) Снять галки с тех файлов торрента, которые мы не хотим закачивать:
* либо вручную, снимая с каждого файла галку( скрин №1)
* либо, нажав кнопку "Снять метки (Select None)", сняв сразу со всех файлов(скрин №2)
№1

№2

Оставляем только на нужных нам файлах (файле).

3)Нажать О.К
-Добавлена десятая, заключительная, серия второго сезона-Приятного просмотра!!!-
Download / Скачать

Хотите скачать бесплатно? Зарегистрируйтесь на сайте (ссылка на регистрацию). Pirat.ca - самый быстрый торрент трекер в рунете!

Как скачивать  ·   Что такое торрент  ·   Рейтинг и ограничения



Последний раз редактировалось: kugesan (2016-05-06 21:12), всего редактировалось 6 раз(а)

somik

Легенда

26957

Пост 14-Мар-2016 00:32 (спустя 17 дней)

[Q] 

Коллективчик в сериале подобран креативно. Актёры известны по сериалам бестселлерам. !COOL!

_________________
Всё когда-нибудь уже было... В интернете!
[Профиль]  [ЛС] 

kugesan ®

56682

Пост 06-Май-2016 21:13 (спустя 1 месяц 23 дня)

[Q] 

-Добавлена десятая, заключительная, серия второго сезона-Приятного просмотра!!!-

_________________

В мире две бесконечности: вселенная и человеческая глупость - Альберт Эйнштен
«Можно вытащить человека из грязи, но нельзя вытащить грязь из человека»!
[Профиль]  [ЛС] 

balamutych 8

Шкипер

Пост 17-Май-2016 15:44 (спустя 10 дней)

[Q] 

Спасибо большое
[Профиль]  [ЛС] 

Пост 18-Май-2016 12:54 (спустя 21 час)

Топик был перенесен из форума Сериалы в эфире в форум Зарубежные сериалы
Андря
 
Показать сообщения:    
Ответить на тему

Текущее время: Сегодня 20:03

Часовой пояс: GMT + 4



Вы не можете начинать темы
Вы не можете отвечать на сообщения
Вы не можете редактировать свои сообщения
Вы не можете удалять свои сообщения
Вы не можете голосовать в опросах
Вы не можете прикреплять файлы к сообщениям
Вы не можете скачивать файлы

▼ Вниз