ML
     
  Уважаемый Гость!
Вы можете поддержать проект и зарегистрироваться у наших партнеров - онлайн-стратегия MyLands. При регистрации в игре Вы получите код, который сможете активировать после регистрации на pirat.ca и получить 1000 дублонов.

Ваш код:
8dcb839cf1b47e56d6dc42d17f26b3e4822e9aee
 
     

Ночной администратор / The Night Manager / Минисериал / Серии: 1-6 (6) (Сюзанна Бир / Susanne Bier) [2016 г., боевик, триллер, драма, BDRip, 720p] MVO (LostFilm, Jaskier) + Original (Eng) + Sub (Rus, Eng)

Ответить на тему
 
Автор
Сообщение

Пост 28-Фев-2016 21:48

[Q] 

TERMOS

Легенда

-Ночной администратор / The Night Manager
(Минисериал)
-- Производство: Великобритания, США
Жанр: боевик, триллер, драма
Год выпуска: 2016 г.
Продолжительность: 6x ~01:00:00
Перевод: Профессиональный (многоголосый, закадровый) [LostFilm]
Перевод 2: Профессиональный (многоголосый, закадровый) [Jaskier]
Оригинальный аудиопоток: английский
Режиссер: Сюзанна Бир / Susanne Bier-В ролях: Том Хиддлстон, Хью Лори, Элизабет Дебики, Оливия Колман, Том Холландер, Майкл Нардон, Алистэр Петри, Дуглас Ходж, Дэвид Хэрвуд, Тобайас Мензис-Описание: Ночной администратор европейского отеля завербован агентами спецслужб для проникновения в международную сеть торговца оружием.
- - -Качество видео: BDRip
Источник: Ночной администратор / The Night Manager [Miniseries] (2016) Blu-ray [Custom] 1080p AVC DTS-HD 5.1 thx vlaluk
Контейнер: MKV
Стандарт разрешения: 720p
Видео кодек: H.264/AVC
Аудио кодек: AC3
Видео: 1280x720 at 25.000 fps, ~ 6700-9800 kbps avg
Аудио: Russian: 48 kHz, AC3, 3/2 (L,C,R,l,r) + LFE ch, ~640 kbps avg |Многоголосый закадровый, LostFilm|
Аудио #2: Russian: 48 kHz, AC3, 3/2 (L,C,R,l,r) + LFE ch, ~640 kbps avg |Многоголосый закадровый, Jaskier|
Аудио #3: English: 48 kHz, AC3, 3/2 (L,C,R,l,r) + LFE ch, ~640 kbps avg
Cубтитры: Russian (Нотабеноид), English (SDH, Full)
Код:
Format                      : Matroska
Format version              : Version 4 / Version 2
File size                   : 4.72 GiB
Duration                    : 57mn 32s
Overall bit rate            : 11.7 Mbps
Encoded date                : UTC 2016-07-26 07:29:21
Writing application         : mkvmerge v8.3.0 ('Over the Horizon') 32bit
Writing library             : libebml v1.3.1 + libmatroska v1.4.2
DURATION                    : 00:56:12.440000000
NUMBER_OF_FRAMES            : 657
NUMBER_OF_BYTES             : 36377
_STATISTICS_WRITING_APP     : mkvmerge v8.3.0 ('Over the Horizon') 32bit
_STATISTICS_WRITING_DATE_UT : 2016-07-26 07:29:21
_STATISTICS_TAGS            : BPS DURATION NUMBER_OF_FRAMES NUMBER_OF_BYTES
Video
ID                          : 1
Format                      : AVC
Format/Info                 : Advanced Video Codec
Format profile              : [email protected]
Format settings, CABAC      : Yes
Format settings, ReFrames   : 9 frames
Codec ID                    : V_MPEG4/ISO/AVC
Duration                    : 57mn 32s
Bit rate                    : 9 578 Kbps
Width                       : 1 280 pixels
Height                      : 720 pixels
Display aspect ratio        : 16:9
Frame rate mode             : Constant
Frame rate                  : 25.000 fps
Color space                 : YUV
Chroma subsampling          : 4:2:0
Bit depth                   : 8 bits
Scan type                   : Progressive
Bits/(Pixel*Frame)          : 0.416
Stream size                 : 3.85 GiB (82%)
Writing library             : x264 core 148 r2665kMod a01e339
Encoding settings           : cabac=1 / ref=9 / deblock=1:-3:-3 / analyse=0x3:0x133 / me=umh / subme=10 / psy=1 / fade_compensate=0.00 / psy_rd=1.00:0.00 / mixed_ref=1 / me_range=24 / chroma_me=1 / trellis=2 / 8x8dct=1 / cqm=0 / deadzone=21,11 / fast_pskip=0 / chroma_qp_offset=-2 / threads=12 / lookahead_threads=2 / sliced_threads=0 / nr=0 / decimate=0 / interlaced=0 / bluray_compat=0 / constrained_intra=0 / fgo=0 / bframes=8 / b_pyramid=2 / b_adapt=2 / b_bias=0 / direct=3 / weightb=1 / open_gop=0 / weightp=2 / keyint=250 / keyint_min=25 / scenecut=40 / intra_refresh=0 / rc_lookahead=60 / rc=crf / mbtree=0 / crf=18.0000 / qcomp=0.65 / qpmin=0 / qpmax=69 / qpstep=4 / vbv_maxrate=62500 / vbv_bufsize=78125 / crf_max=0.0 / nal_hrd=none / filler=0 / ip_ratio=1.30 / pb_ratio=1.20 / aq=3:0.75
Language                    : English
Default                     : Yes
Forced                      : No
Matrix coefficients         : BT.709
Color range                 : Limited
DURATION                    : 00:57:32.720000000
NUMBER_OF_FRAMES            : 86318
NUMBER_OF_BYTES             : 4233215301
_STATISTICS_WRITING_APP     : mkvmerge v8.3.0 ('Over the Horizon') 32bit
_STATISTICS_WRITING_DATE_UT : 2016-07-26 07:29:21
_STATISTICS_TAGS            : BPS DURATION NUMBER_OF_FRAMES NUMBER_OF_BYTES
Audio #1
ID                          : 2
Format                      : AC-3
Format/Info                 : Audio Coding 3
Mode extension              : CM (complete main)
Format settings, Endianness : Big
Codec ID                    : A_AC3
Duration                    : 57mn 32s
Bit rate mode               : Constant
Bit rate                    : 640 Kbps
Channel(s)                  : 6 channels
Channel positions           : Front: L C R, Side: L R, LFE
Sampling rate               : 48.0 KHz
Bit depth                   : 16 bits
Compression mode            : Lossy
Stream size                 : 263 MiB (5%)
Title                       : Многоголосый закадровый, LostFilm
Language                    : Russian
Default                     : Yes
Forced                      : No
Audio #2
ID                          : 3
Format                      : AC-3
Format/Info                 : Audio Coding 3
Mode extension              : CM (complete main)
Format settings, Endianness : Big
Codec ID                    : A_AC3
Duration                    : 57mn 32s
Bit rate mode               : Constant
Bit rate                    : 640 Kbps
Channel(s)                  : 6 channels
Channel positions           : Front: L C R, Side: L R, LFE
Sampling rate               : 48.0 KHz
Bit depth                   : 16 bits
Compression mode            : Lossy
Stream size                 : 263 MiB (5%)
Title                       : Многоголосый закадровый, Jaskier
Language                    : Russian
Default                     : No
Forced                      : No
Audio #3
ID                          : 4
Format                      : AC-3
Format/Info                 : Audio Coding 3
Mode extension              : CM (complete main)
Format settings, Endianness : Big
Codec ID                    : A_AC3
Duration                    : 57mn 32s
Bit rate mode               : Constant
Bit rate                    : 640 Kbps
Channel(s)                  : 6 channels
Channel positions           : Front: L C R, Side: L R, LFE
Sampling rate               : 48.0 KHz
Bit depth                   : 16 bits
Compression mode            : Lossy
Stream size                 : 263 MiB (5%)
Language                    : English
Default                     : No
Forced                      : No
Text #1
ID                          : 5
Format                      : UTF-8
Codec ID                    : S_TEXT/UTF8
Codec ID/Info               : UTF-8 Plain Text
Language                    : Russian
Default                     : No
Forced                      : No
Text #2
ID                          : 6
Format                      : UTF-8
Codec ID                    : S_TEXT/UTF8
Codec ID/Info               : UTF-8 Plain Text
Language                    : English
Default                     : No
Forced                      : No
Text #3
ID                          : 7
Format                      : UTF-8
Codec ID                    : S_TEXT/UTF8
Codec ID/Info               : UTF-8 Plain Text
Title                       : SDH
Language                    : English
Default                     : No
Forced                      : No
Menu
00:00:00.000                : en:00:00:00.000
00:09:34.840                : en:00:09:34.840
00:19:58.040                : en:00:19:58.040
00:29:33.400                : en:00:29:33.400
00:38:03.320                : en:00:38:03.320
00:47:23.360                : en:00:47:23.360
Download / Скачать

Хотите скачать бесплатно? Зарегистрируйтесь на сайте (ссылка на регистрацию). Pirat.ca - самый быстрый торрент трекер в рунете!

Как скачивать  ·   Что такое торрент  ·   Рейтинг и ограничения



Последний раз редактировалось: TERMOS (2016-07-26 23:26), всего редактировалось 2 раз(а)

Пост 28-Фев-2016 23:01 (спустя 1 час 12 минут)

Топик был перенесен из форума Зарубежные сериалы (Трюм) в форум Сериалы в эфире
Андря
 

TERMOS ®

Легенда

12068

Пост 16-Мар-2016 15:51 (спустя 16 дней)

[Q] 

Добавлены 2-3 серии. Обновите торрент-файл!

_________________
[Профиль]  [ЛС] 

Всеволод96

Штурман

Пост 17-Мар-2016 13:31 (спустя 21 час)

[Q] 

А где 4-ая серия?Все уже выпустили
[Профиль]  [ЛС] 

denmenen

Шкипер

Пост 17-Мар-2016 15:21 (спустя 1 час 49 минут)

[Q] 

интересный сериал. советую.

_________________
Только дурак будет доказывать дураку, что тот дурак...
[Профиль]  [ЛС] 

TERMOS ®

Легенда

12068

Пост 26-Июл-2016 23:28 (спустя 4 месяца 9 дней)

[Q] 

За мной должок)) Замена HDTV на BDRip. Обновите торрент-файл!

_________________
[Профиль]  [ЛС] 

zachitnik

Шкипер

Пост 26-Июл-2016 23:31 (спустя 2 минуты)

[Q] 

Обязательно посмотрю. спасибо
[Профиль]  [ЛС] 
Показать сообщения:    
Ответить на тему

Текущее время: Сегодня 04:19

Часовой пояс: GMT + 4



Вы не можете начинать темы
Вы не можете отвечать на сообщения
Вы не можете редактировать свои сообщения
Вы не можете удалять свои сообщения
Вы не можете голосовать в опросах
Вы не можете прикреплять файлы к сообщениям
Вы не можете скачивать файлы

▼ Вниз