ML
     
  Уважаемый Гость!
Вы можете поддержать проект и зарегистрироваться у наших партнеров - онлайн-стратегия MyLands. При регистрации в игре Вы получите код, который сможете активировать после регистрации на pirat.ca и получить 1000 дублонов.

Ваш код:
5af7de75d3db09b6a37bc8bab71b0e87ccde73d6
 
     

Хэп и Леонард / Hap and Leonard / Сезон 1 / Серии: 6 из 6 (Джим Микл / Jim Mickle, ...) [2016г., драма, криминал, ... WEB-DLRip] MVO (NewStudio) + Original (Eng) [Финал сезона]

Ответить на тему
 
Автор
Сообщение

Пост 05-Мар-2016 01:16

[Q] 

kugesan

Хэп и Леонард / Hap and Leonard ***- Страна: США
Год выпуска: 2016
Жанр: драма, криминал, ...-Озвучка: Студия
Перевод: Многоголосый закадровый, профессиональный
Оригинальный аудиопоток: английский-Перевод: Алексей Матвеев
Постер: Vortex-Премьера (мир): 2 марта 2016-Режиссер: Джим Микл / Jim Mickle, Ник Гомез / Nick Gomez
В главных ролях: Джеймс Пьюрфой, Майкл Кеннет Уильямс, Поллианна МакИнтош, Нил Сэндилэндс, Trace Masters, Джефф Поуп, Рон Рогге, Каден Вашингтон Льюис, Уилльям Шафф, Джон Тил мл., ...-Описание фильма:
Сериал расскажет о необычной дружбе двух неудачников — Хэпа Коллинза и Леонарда Пайна. Хэп — белый работяга, который провел свою юность в тюрьме за то, что отказался воевать во Вьетнаме. Пайн — чернокожий открытый гей, ветеран Вьетнама, от которого отвернулась родня из-за его ориентации и проблем с управлением гневом.-Сезон: 1
Серии: 6 из 6 серий
Продолжительность: ~ 00:44:00 мин серия-Качество видео: WEB-DLRip
Формат: AVI
Видеокодек: XviD
Аудио кодек: MP3
Видео: MPEG-4 Visual at 1460 Кбит/сек: 720 x 400 (2.000) at 23.976 fps: 0.21 Бит/Пиксели
Аудио Rus: MP3 at 128 Кбит/сек: 2 канала, 48,0 КГц |NewStudio|
Аудио Eng: MP3 at 128 Кбит/сек: 2 канала, 48,0 КГц |Original|
- -
  • Сезон дикарей (Savage Season)
  • Дно (The Bottoms)
  • Нырок (The Dive)э
  • Труди (Trudy)
  • Война (War)
  • Эскимосы (Eskimos)
-
Общее
Полное имя : E:\_Сериалы\_Сериалы\Хэп и Леонард\Hap.and.Leonard.S01.WEBDLRip.NewStudio.TV\Hap.and.Leonard.S01E01.WEBDLRip.NewStudio.TV.avi
Формат : AVI
Формат/Информация : Audio Video Interleave
Размер файла : 550 Мбайт
Продолжительность : 44 м.
Общий поток : 1730 Кбит/сек
Программа кодирования : VirtualDubMod 1.5.10.2 (build 2540/release)
Библиотека кодирования : VirtualDubMod build 2540/release
Видео
Идентификатор : 0
Формат : MPEG-4 Visual
Профиль формата : Advanced [email protected]
Параметр BVOP формата : 2
Параметр QPel формата : Нет
Параметр GMC формата : Без точки перехода
Параметр матрицы формата : Default (MPEG)
Идентификатор кодека : XVID
Идентификатор кодека/Подсказка : XviD
Продолжительность : 44 м.
Битрейт : 1460 Кбит/сек
Ширина : 720 пикселей
Высота : 400 пикселей
Соотношение сторон : 16:9
Частота кадров : 23,976 (23976/1000) кадра/сек
Цветовое пространство : YUV
Субдискретизация насыщенности : 4:2:0
Битовая глубина : 8 бит
Тип развёртки : Прогрессивная
Метод сжатия : С потерями
Бит/(Пиксели*Кадры) : 0.211
Размер потока : 464 Мбайт (84%)
Библиотека кодирования : XviD 73
Аудио #1
Идентификатор : 1
Формат : MPEG Audio
Версия формата : Version 1
Профиль формата : Layer 3
Режим : Joint stereo
Идентификатор кодека : 55
Идентификатор кодека/Подсказка : MP3
Продолжительность : 44 м.
Вид битрейта : Постоянный
Битрейт : 128 Кбит/сек
Каналы : 2 канала
Частота : 48,0 КГц
Метод сжатия : С потерями
Размер потока : 40,7 Мбайт (7%)
Выравнивание : Соединение по промежуткам
Продолжительность промежутка : 42 мс. (1,00 видеокадр)
Время предзагрузки промежутка : 504 мс.
Библиотека кодирования : LAME3.99r
Настройки программы : -m j -V 4 -q 2 -lowpass 17 -b 128
Аудио #2
Идентификатор : 2
Формат : MPEG Audio
Версия формата : Version 1
Профиль формата : Layer 3
Режим : Joint stereo
Идентификатор кодека : 55
Идентификатор кодека/Подсказка : MP3
Продолжительность : 44 м.
Вид битрейта : Постоянный
Битрейт : 128 Кбит/сек
Каналы : 2 канала
Частота : 48,0 КГц
Метод сжатия : С потерями
Размер потока : 40,7 Мбайт (7%)
Выравнивание : Соединение по промежуткам
Продолжительность промежутка : 42 мс. (1,00 видеокадр)
Время предзагрузки промежутка : 504 мс.
Библиотека кодирования : LAME3.99r
Настройки программы : -m j -V 4 -q 2 -lowpass 17 -b 128
-
-Скриншоты:
-
-
Раздача ведётся путём добавления новых серий; при каждом добавлении создаётся новый торрент.
Чтобы начать докачку новой серии, пользователям необходимо сделать следующее:
1. остановить скачивание,
2. удалить старый торрент у себя из клиента (старые серии удалять не надо),
3. скачать новый торрент и запустить его у себя в клиенте вместо старого, при этом указать клиенту путь в старую папку, куда и должно происходить скачивание новых серий.
Ваш клиент при этом должен произвести хеширование (проверку) старой папки (если не производит сам - помогите ему сделать это), и будет докачивать только те серии которых у вас ещё нет. Старые серии при этом не удаляются, а продолжают раздаваться!
Eсли вы уже удалили старые серии, то предотвратить повторную закачку старых серий можно, отжав галочку в соответствующих местах при запуске нового торрента. По возможности, желательно не удалять старые серии как можно дольше, чтобы релизёр не столько продолжал раздавать старые серии, а смог сконцентрироваться на новых.
Совет для тех, кто не хочет ждать перехеширования:
Создайте ещё одну папку рядом с папкой сериала (рядом, а не в ней!!!). Каждую новую серию после удачной загрузки копируйте в новую папку так чтобы ваша основная папка всегда была пуста. Когда ваш новый торрент предложит вам закачать все файлы, выберете только последнюю. Для сидирования же укажите адрес новой папки.
Как закачать отдельный файл из торрента или докачать ранее пропущенные файлы торрента!
-
1. Открыть торрент
2. Снять галки с тех файлов торрента, которые мы не хотим закачивать. Оставляем только на нужных нам файлах (файле).
3. Нажать О.К.
В клиенте utorrent
Инструкция
1) Открыть торрент

2) Снять галки с тех файлов торрента, которые мы не хотим закачивать:
* либо вручную, снимая с каждого файла галку( скрин №1)
* либо, нажав кнопку "Снять метки (Select None)", сняв сразу со всех файлов(скрин №2)
№1

№2

Оставляем только на нужных нам файлах (файле).

3)Нажать О.К
-Добавлена шестая, заключительная, серия первого сезона-
Download / Скачать

Хотите скачать бесплатно? Зарегистрируйтесь на сайте (ссылка на регистрацию). Pirat.ca - самый быстрый торрент трекер в рунете!

Как скачивать  ·   Что такое торрент  ·   Рейтинг и ограничения



Последний раз редактировалось: kugesan (2016-04-08 23:28), всего редактировалось 6 раз(а)

oldmaster

Лоцман

Пост 06-Мар-2016 21:35 (спустя 1 день 20 часов)

[Q] 

Очередная голубая пропаганда. Вообще, такие "фильмы" прямо противоречат идеологии пиратства. В рядах брутальных пиратов не место геям. Долой голубых голливудских пропагандистов. Списать на берег пиратов, распространяющих подобную муть.
[Профиль]  [ЛС] 

kugesan ®

56652

Пост 08-Апр-2016 23:28 (спустя 1 месяц 2 дня)

[Q] 

-Добавлена шестая, заключительная, серия первого сезона-

_________________

В мире две бесконечности: вселенная и человеческая глупость - Альберт Эйнштен
«Можно вытащить человека из грязи, но нельзя вытащить грязь из человека»!
[Профиль]  [ЛС] 
Показать сообщения:    
Ответить на тему

Текущее время: Сегодня 14:09

Часовой пояс: GMT + 4



Вы не можете начинать темы
Вы не можете отвечать на сообщения
Вы не можете редактировать свои сообщения
Вы не можете удалять свои сообщения
Вы не можете голосовать в опросах
Вы не можете прикреплять файлы к сообщениям
Вы не можете скачивать файлы

▼ Вниз