ML
     
  Уважаемый Гость!
Вы можете поддержать проект и зарегистрироваться у наших партнеров - онлайн-стратегия MyLands. При регистрации в игре Вы получите код, который сможете активировать после регистрации на pirat.ca и получить 1000 дублонов.

Ваш код:
a978488e62322cd72e113ab723b8a7fdc10eb9b9
 
     

Последний человек на Земле / The Last Man on Earth / Сезон 2 / Серии: 18 из 18 (Фил Лорд / Phil Lord, ...) [2015г., фантастика, боевик, комедия, ... WEB-DLRip 1080p] VO (BaibaKo) + Original (Eng) [Финал сезона]

Ответить на тему
 
Автор
Сообщение

Пост 09-Мар-2016 19:41

[Q] 

kugesan

Последний человек на Земле
The Last Man on Earth
- Русское название: Последний человек на Земле
Оригинальное название: The Last Man on Earth
Страна: США
Год выпуска: 2015
Жанр: фантастика, боевик, комедия, ...-Озвучка: Студия
Перевод: Профессиональный (двухголосый , закадровый)
Оригинальный аудиопоток: английский-Перевод: Мария Назарко и Анна Макаренко (бюро переводов "SM-Group")
Озвучка: Anna_Smile и Валерий Смекалов
Монтаж: Виталий Ткаченко
Обложка: Антон Максимов-Премьера (мир): 1 марта 2015-Режиссер: Фил Лорд / Phil Lord, Кристофер Миллер / Christopher Miller, Питер Атенсио / Peter Atencio, ...
Джон Соломон, Фил Лорд, Кристофер Миллер, ...
В главных ролях: Клеопатра Коулмэн / Cleopatra Coleman, Дженьюэри Джонс / January Jones, Мэл Родригез / Mel Rodriguez, Кристен Шаал / Kristen Schaal, Уилл Форте / Will Forte, ...-Описание фильма:
Фил Миллер когда-то был просто обычным парнем, который любил свою семью и ненавидел свою работу в банке — теперь он последняя надежда человечества. Найдет ли он когда-нибудь другого живого человека на планете?-Сезон: 2
Серии: 18 из 18 серий
Продолжительность: ~ 00:23:00 мин серия-
Качество видео: WEB-DL 1080p
Контейнер: MKV
Видео кодек: AVC ([email protected])
Аудио кодек: AC-3
Видео: AVC at 4983 Кбит/сек: 1920 x 1080 (1.778) at 23.976 fps
Аудио Rus: AC-3 at 384 Кбит/сек: 6 каналов, 48,0 КГц |BaibaKo|
Аудио Eng: AC-3 at 384 Кбит/сек: 6 каналов, 48,0 КГц |Original|
Cубтитры: отсутствуют
-
-
  • Есть ли кто-нибудь там? (Is There Anybody Out There?)
  • Бу (The Boo)
  • Мертвец идет (Dead Man Walking)
  • От C до T (C to the T)
  • Сверчки (Crickets)
  • Живой провод (A Real Live Wire)
  • Детские шаги (Baby Steps)
  • Нет быка (No Bull)
  • Секретный Санта (Secret Santa)
  • Тихая ночь (Silent Night)
  • Тьма кромешная (Pitch Black)
  • Вальгалла (Valhalla)
  • Рыбное блюдо (Fish in the Dish)
  • Кизяк на труханах (Skidmark)
  • Безымянный палец (Fourth Finger)
  • Медленно падая (Falling Slowly)
  • Умный и глупый (Smart and Stupid)
  • Годы исследований коту под хвост (30 Years of Science Down the Tubes)
-
Общее
Уникальный идентификатор : 174987485713774229076264599175756930263 (0x83A55D261EC9F22C992654326BAA5CD7)
Полное имя : D:\Последний человек на Земле\The.Last.Man.On.Earth.s02.HD1080p.WEB-DL.Rus.Eng.BaibaKo\The.Last.Man.On.Earth.s02e01.HD1080p.WEB-DL.Rus.Eng.BaibaKo.tv.mkv
Формат : Matroska
Версия формата : Version 4 / Version 2
Размер файла : 894 Мбайт
Продолжительность : 21 м.
Общий поток : 5753 Кбит/сек
Дата кодирования : UTC 2015-09-28 20:21:05
Программа кодирования : mkvmerge v8.3.0 ('Over the Horizon') 64bit
Библиотека кодирования : libebml v1.3.1 + libmatroska v1.4.2
Видео
Идентификатор : 1
Формат : AVC
Формат/Информация : Advanced Video Codec
Профиль формата : [email protected]
Параметр CABAC формата : Да
Параметр ReFrames формата : 4 кадра
Идентификатор кодека : V_MPEG4/ISO/AVC
Продолжительность : 21 м.
Битрейт : 4983 Кбит/сек
Ширина : 1920 пикселей
Высота : 1080 пикселей
Соотношение сторон : 16:9
Режим частоты кадров : Постоянный
Частота кадров : 23,976 (24000/1001) кадра/сек
Цветовое пространство : YUV
Субдискретизация насыщенности : 4:2:0
Битовая глубина : 8 бит
Тип развёртки : Прогрессивная
Бит/(Пиксели*Кадры) : 0.100
Размер потока : 774 Мбайт (87%)
Язык : English
Default : Да
Forced : Нет
Цветовой диапазон : Limited
Основные цвета : BT.709
Характеристики трансфера : BT.709
Коэффициенты матрицы : BT.709
Аудио #1
Идентификатор : 2
Формат : AC-3
Формат/Информация : Audio Coding 3
Расширение режима : CM (complete main)
Параметр Endianness формата : Big
Идентификатор кодека : A_AC3
Продолжительность : 21 м.
Вид битрейта : Постоянный
Битрейт : 384 Кбит/сек
Каналы : 6 каналов
Расположение каналов : Front: L C R, Side: L R, LFE
Частота : 48,0 КГц
Частота кадров : 31,250 кадров/сек (1536 spf)
Метод сжатия : С потерями
Размер потока : 59,7 Мбайт (7%)
Язык : Russian
Default : Да
Forced : Нет
Аудио #2
Идентификатор : 3
Формат : AC-3
Формат/Информация : Audio Coding 3
Расширение режима : CM (complete main)
Параметр Endianness формата : Big
Идентификатор кодека : A_AC3
Продолжительность : 21 м.
Вид битрейта : Постоянный
Битрейт : 384 Кбит/сек
Каналы : 6 каналов
Расположение каналов : Front: L C R, Side: L R, LFE
Частота : 48,0 КГц
Частота кадров : 31,250 кадров/сек (1536 spf)
Метод сжатия : С потерями
Размер потока : 59,7 Мбайт (7%)
Язык : English
Default : Нет
Forced : Нет
-
-Скриншоты:
-
-
1. Открыть торрент
2. Снять галки с тех файлов торрента, которые мы не хотим закачивать. Оставляем только на нужных нам файлах (файле).
3. Нажать О.К.
В клиенте utorrent
Инструкция
1) Открыть торрент

2) Снять галки с тех файлов торрента, которые мы не хотим закачивать:
* либо вручную, снимая с каждого файла галку( скрин №1)
* либо, нажав кнопку "Снять метки (Select None)", сняв сразу со всех файлов(скрин №2)
№1

№2

Оставляем только на нужных нам файлах (файле).

3)Нажать О.К
-Добавлена восемнадцатая, заключительная, серия второго сезона-Приятного просмотра!!!-
Download / Скачать

Хотите скачать бесплатно? Зарегистрируйтесь на сайте (ссылка на регистрацию). Pirat.ca - самый быстрый торрент трекер в рунете!

Как скачивать  ·   Что такое торрент  ·   Рейтинг и ограничения



Последний раз редактировалось: kugesan (2016-05-18 21:53), всего редактировалось 10 раз(а)

somik

Легенда

26961

Пост 09-Мар-2016 19:55 (спустя 14 минут)

[Q] 

Спасибо, но где раздача?

_________________
Всё когда-нибудь уже было... В интернете!
[Профиль]  [ЛС] 

TriGun

Морской Волк

Пост 09-Мар-2016 22:01 (спустя 2 часа 6 минут)

[Q] 

Автору респект!А вообще,заметил что озвучку BaibaKo плохо качают и еще хуже раздают..Не знаю почему..Лично меня они радуют больше других

_________________
[Профиль]  [ЛС] 

kugesan ®

56686

Пост 09-Мар-2016 22:09 (спустя 7 минут)

[Q] 

Попробую поднять отдачу...

_________________

В мире две бесконечности: вселенная и человеческая глупость - Альберт Эйнштен
«Можно вытащить человека из грязи, но нельзя вытащить грязь из человека»!
[Профиль]  [ЛС] 

cybersash

Морской Волк

Пост 16-Мар-2016 09:39 (спустя 6 дней)

[Q] 

Спасибо, озвучка и вправду неплохая
[Профиль]  [ЛС] 

komimir

Лоцман

Пост 22-Апр-2016 21:42 (спустя 1 месяц 6 дней)

[Q] 

Единственный сериал в котором я жду каждую новую серию. cy
[Профиль]  [ЛС] 

kugesan ®

56686

Пост 18-Май-2016 21:53 (спустя 26 дней)

[Q] 

Добавлена восемнадцатая, заключительная, серия второго сезона-Приятного просмотра!!!-

_________________

В мире две бесконечности: вселенная и человеческая глупость - Альберт Эйнштен
«Можно вытащить человека из грязи, но нельзя вытащить грязь из человека»!
[Профиль]  [ЛС] 

dambrina

Флибустьер

Пост 25-Окт-2016 20:40 (спустя 5 месяцев 6 дней)

[Q] 

Спасибо!!! Автору респект!!!
[Профиль]  [ЛС] 
Показать сообщения:    
Ответить на тему

Текущее время: Сегодня 22:07

Часовой пояс: GMT + 4



Вы не можете начинать темы
Вы не можете отвечать на сообщения
Вы не можете редактировать свои сообщения
Вы не можете удалять свои сообщения
Вы не можете голосовать в опросах
Вы не можете прикреплять файлы к сообщениям
Вы не можете скачивать файлы

▼ Вниз