ML
     
  Уважаемый Гость!
Вы можете поддержать проект и зарегистрироваться у наших партнеров - онлайн-стратегия MyLands. При регистрации в игре Вы получите код, который сможете активировать после регистрации на pirat.ca и получить 1000 дублонов.

Ваш код:
fcd618d94adc1456bccbde5047c9cd0930e4ae4d
 
     

Мотель Бейтс / Bates Motel / Сезон: 4 / Серии: 10 из 10 (Такер Гейтс / Tucker Gates, ...) [2016 г., триллер, детектив, ужасы, ..., WEB-DLRip] MVO (LostFilm) [Финал сезона]

Ответить на тему
 
Автор
Сообщение

Пост 12-Мар-2016 15:31

[Q] 

kugesan

-Мотель Бейтс / Bates Motel «A boy's best friend is his mother»-- Производство: США
Жанр: триллер, детектив, ужасы, ...
Год выпуска: 2016 г.-Премьера (мир): 18 марта 2013, ...
Премьера (РФ): 27 октября 2014-Озвучка: Студия
Перевод: Многоголосый закадровый, профессиональный-Режиссер: Такер Гейтс / Tucker Gates, Эдвард Бьянчи / Edward Bianchi, Роксанн Доусон / Roxann Dawson, ...-В ролях: Кэролайн Мэтьюз, Вера Фармига, Фредди Хаймор, Джер Бернс, Мерседес Де Ла Зерда, Мэтт Эллис, Кончита Кэмпбелл, Майк Фогель, Нестор Карбонелл, У. Эрл Браун, Оливия Кук, Эммалин Эстрада, Ричард Хэрмон, Никола Пельтц, Дженна Романин, Макс Тириот, Киган Коннор Трейси, Бриттни Уилсон, Алийа О’Брайен, Александр Кэлверт ...-Описание:
После смерти мужа Норма Бэйтс переезжает со своим сыном-подростком Норманом в тихий городок под названием «Вайт-Пайн Бэй» в Орегоне, где она покупает небольшой мотель и дом, ранее принадлежавший семье Саммерс.-Сезон: 4
Серии: 10 из 10 серий
Продолжительность: ~ 00:42:00 мин серия-
Качество видео: WEB-DLRip
Контейнер: AVI
Видео кодек: XviD
Аудио кодек: MP3
Видео: MPEG-4 Visual at 1470 Кбит/сек: 720 x 400 (1.800) at 23.976 fps: 0.21 Бит/Пиксели
Аудио Rus: MPEG Audio at 192 Кбит/сек: 2 канала, 48,0 КГц |LostFilm|
Cубтитры: отсутствуют
- -
  • Опасен для себя и окружающих (A Danger to Himself and Others)
  • Спокойной ночи, мама (Goodnight, Mother)
  • Пока смерть не разлучит вас ('Til Death Do You Part)
  • Зимние огни (Lights of Winter)
  • Преломление (Refraction)
  • Cейф (The Vault)
  • Нет места милее родного дома (There\'s No Place Like Home)
  • Неверная (Unfaithful)
  • Навсегда (Forever)
  • Норман (Norman)
-
Общее
Полное имя : E:\_Сериалы\_Сериалы\Мотель Бейтс\Bates.Motel.S04.rus.LostFilm.TV\Bates.Motel.S04E01.rus.LostFilm.TV.avi
Формат : AVI
Формат/Информация : Audio Video Interleave
Размер файла : 511 Мбайт
Продолжительность : 42 м.
Режим общего битрейта : Переменный
Общий поток : 1670 Кбит/сек
Программа кодирования : Nandub v1.0rc2
Библиотека кодирования : Nandub build 1853/release
Видео
Идентификатор : 0
Формат : MPEG-4 Visual
Профиль формата : Advanced [email protected]
Параметр BVOP формата : Нет
Параметр QPel формата : Нет
Параметр GMC формата : Без точки перехода
Параметр матрицы формата : Default (H.263)
Идентификатор кодека : XVID
Идентификатор кодека/Подсказка : XviD
Продолжительность : 42 м.
Битрейт : 1470 Кбит/сек
Ширина : 720 пикселей
Высота : 400 пикселей
Соотношение сторон : 16:9
Частота кадров : 23,976 (23976/1000) кадра/сек
Цветовое пространство : YUV
Субдискретизация насыщенности : 4:2:0
Битовая глубина : 8 бит
Тип развёртки : Прогрессивная
Метод сжатия : С потерями
Бит/(Пиксели*Кадры) : 0.213
Размер потока : 449 Мбайт (88%)
Библиотека кодирования : XviD 1.2.1 (UTC 2008-12-04)
Аудио
Идентификатор : 1
Формат : MPEG Audio
Версия формата : Version 1
Профиль формата : Layer 3
Режим : Joint stereo
Расширение режима : MS Stereo
Идентификатор кодека : 55
Идентификатор кодека/Подсказка : MP3
Продолжительность : 42 м.
Вид битрейта : Переменный
Битрейт : 192 Кбит/сек
Каналы : 2 канала
Частота : 48,0 КГц
Метод сжатия : С потерями
Размер потока : 57,5 Мбайт (11%)
Выравнивание : Соединение по промежуткам
Продолжительность промежутка : 24 мс. (0,58 видеокадр)
Время предзагрузки промежутка : 490 мс.
Библиотека кодирования : LAME3.97b
Настройки программы : -m j -V 4 -q 3 -lowpass 18.6 --abr 192
-
-Скриншоты:
-
-
Раздача ведётся путём добавления новых серий; при каждом добавлении создаётся новый торрент.
Чтобы начать докачку новой серии, пользователям необходимо сделать следующее:
1. остановить скачивание,
2. удалить старый торрент у себя из клиента (старые серии удалять не надо),
3. скачать новый торрент и запустить его у себя в клиенте вместо старого, при этом указать клиенту путь в старую папку, куда и должно происходить скачивание новых серий.
Ваш клиент при этом должен произвести хеширование (проверку) старой папки (если не производит сам - помогите ему сделать это), и будет докачивать только те серии которых у вас ещё нет. Старые серии при этом не удаляются, а продолжают раздаваться!
Eсли вы уже удалили старые серии, то предотвратить повторную закачку старых серий можно, отжав галочку в соответствующих местах при запуске нового торрента. По возможности, желательно не удалять старые серии как можно дольше, чтобы релизёр не столько продолжал раздавать старые серии, а смог сконцентрироваться на новых.
Совет для тех, кто не хочет ждать перехеширования:
Создайте ещё одну папку рядом с папкой сериала (рядом, а не в ней!!!). Каждую новую серию после удачной загрузки копируйте в новую папку так чтобы ваша основная папка всегда была пуста. Когда ваш новый торрент предложит вам закачать все файлы, выберете только последнюю. Для сидирования же укажите адрес новой папки.
Как закачать отдельный файл из торрента или докачать ранее пропущенные файлы торрента!
-
1. Открыть торрент
2. Снять галки с тех файлов торрента, которые мы не хотим закачивать. Оставляем только на нужных нам файлах (файле).
3. Нажать О.К.
В клиенте utorrent
Инструкция
1) Открыть торрент

2) Снять галки с тех файлов торрента, которые мы не хотим закачивать:
* либо вручную, снимая с каждого файла галку( скрин №1)
* либо, нажав кнопку "Снять метки (Select None)", сняв сразу со всех файлов(скрин №2)
№1

№2

Оставляем только на нужных нам файлах (файле).

3)Нажать О.К
-Добавлена десятая, заключительная, серия четвертого сезона-Приятного просмотра!!!-
Download / Скачать

Хотите скачать бесплатно? Зарегистрируйтесь на сайте (ссылка на регистрацию). Pirat.ca - самый быстрый торрент трекер в рунете!

Как скачивать  ·   Что такое торрент  ·   Рейтинг и ограничения



Последний раз редактировалось: kugesan (2016-05-21 19:39), всего редактировалось 9 раз(а)

kugesan ®

56710

Пост 21-Май-2016 19:40 (спустя 2 месяца 9 дней)

[Q] 

Добавлена десятая, заключительная, серия четвертого сезона-Приятного просмотра!!!-

_________________

В мире две бесконечности: вселенная и человеческая глупость - Альберт Эйнштен
«Можно вытащить человека из грязи, но нельзя вытащить грязь из человека»!
[Профиль]  [ЛС] 
Показать сообщения:    
Ответить на тему

Текущее время: Сегодня 12:53

Часовой пояс: GMT + 4



Вы не можете начинать темы
Вы не можете отвечать на сообщения
Вы не можете редактировать свои сообщения
Вы не можете удалять свои сообщения
Вы не можете голосовать в опросах
Вы не можете прикреплять файлы к сообщениям
Вы не можете скачивать файлы

▼ Вниз