ML
     
  Уважаемый Гость!
Вы можете поддержать проект и зарегистрироваться у наших партнеров - онлайн-стратегия MyLands. При регистрации в игре Вы получите код, который сможете активировать после регистрации на pirat.ca и получить 1000 дублонов.

Ваш код:
db0e0ad91548759ffeb9bb88bed405e1a4b3c165
 
     

Война и Мир / War and Peace / Сезон 1 / Серии: 6 из 6 (Том Харпер / Tom Harper) [2015 г., драма, мелодрама, военный, история, ... WEBDLRip] MVO (LostFilm) [Финал сериала]

Ответить на тему
 
Автор
Сообщение

Пост 12-Мар-2016 16:30

[Q] 

kugesan

Война и Мир / War and Peace - Страна: Великобритания
Год выпуска: 2015
Жанр: драма, мелодрама, военный, история, ...-Озвучка: Студия
Перевод: Многоголосый закадровый, профессиональный-Премьера (мир): 3 января 2016, ...-Режиссер: Том Харпер / Tom Harper
В главных ролях: Джеймс Нортон, Анейрин Барнард, Пол Дано, Лили Джеймс, Оливия Росс, Рори Кинэн, Гийом Форе, Кит Коннор, Хлоя Пирри, Теренс Бисли ...-Описание фильма:
Год 1805-ый... Французская армия под командованием Наполеона вторглась в Австрию... Наполеон продолжает свой путь на восток, а Россия решила объединиться с Австрией, чтобы дать ему отпор... так они вступили в войну, которая изменит Россию навсегда. История начинается во время царствования Александра I. В центре — любовный треугольник между Наташей Ростовой, Пьером Безуховым и Андреем Болконским. Экранизация одноименного произведения Л.Н. Толстого, в котором внимание зрителей сосредоточат на человеческих взаимоотношениях и истории четырех семейств.-Сезон: 1
Серии: 6 из 6 серий
Продолжительность: ~ 00:59:00 мин серия-Качество видео: WEBDLRip
Формат: AVI
Видеокодек: XviD
Аудиокодек: Mp3
Видео: MPEG-4 Visual at 1914 Кбит/сек: 720 x 400 (1.800) at 25.000 fps, 0.27 Бит/Пиксели
Аудио Rus: MPEG Audio at 192 Кбит/сек, 2 канала, 48,0 КГц |LostFilm|
- -
Общее
Полное имя : E:\_Сериалы\_Сериалы\Война и мир\War.And.Peace.S01.rus.LostFilm.TV\War.And.Peace.S01E01.rus.LostFilm.TV.avi
Формат : AVI
Формат/Информация : Audio Video Interleave
Размер файла : 902 Мбайт
Продолжительность : 59 м.
Режим общего битрейта : Переменный
Общий поток : 2115 Кбит/сек
Программа кодирования : Nandub v1.0rc2
Библиотека кодирования : Nandub build 1853/release
Видео
Идентификатор : 0
Формат : MPEG-4 Visual
Профиль формата : Advanced [email protected]
Параметр BVOP формата : Нет
Параметр QPel формата : Нет
Параметр GMC формата : Без точки перехода
Параметр матрицы формата : Default (H.263)
Идентификатор кодека : XVID
Идентификатор кодека/Подсказка : XviD
Продолжительность : 59 м.
Битрейт : 1914 Кбит/сек
Ширина : 720 пикселей
Высота : 400 пикселей
Соотношение сторон : 16:9
Частота кадров : 25,000 кадров/сек
Цветовое пространство : YUV
Субдискретизация насыщенности : 4:2:0
Битовая глубина : 8 бит
Тип развёртки : Прогрессивная
Метод сжатия : С потерями
Бит/(Пиксели*Кадры) : 0.266
Размер потока : 816 Мбайт (90%)
Библиотека кодирования : XviD 1.2.1 (UTC 2008-12-04)
Аудио
Идентификатор : 1
Формат : MPEG Audio
Версия формата : Version 1
Профиль формата : Layer 3
Режим : Joint stereo
Расширение режима : MS Stereo
Идентификатор кодека : 55
Идентификатор кодека/Подсказка : MP3
Продолжительность : 59 м.
Вид битрейта : Переменный
Битрейт : 192 Кбит/сек
Каналы : 2 канала
Частота : 48,0 КГц
Метод сжатия : С потерями
Размер потока : 80,4 Мбайт (9%)
Выравнивание : Соединение по промежуткам
Продолжительность промежутка : 24 мс. (0,60 видеокадр)
Время предзагрузки промежутка : 439 мс.
Библиотека кодирования : LAME3.97b
Настройки программы : -m j -V 4 -q 3 -lowpass 18.6 --abr 192
-
-Скриншоты:
-
-
Раздача ведётся путём добавления новых серий; при каждом добавлении создаётся новый торрент.
Чтобы начать докачку новой серии, пользователям необходимо сделать следующее:
1. остановить скачивание,
2. удалить старый торрент у себя из клиента (старые серии удалять не надо),
3. скачать новый торрент и запустить его у себя в клиенте вместо старого, при этом указать клиенту путь в старую папку, куда и должно происходить скачивание новых серий.
Ваш клиент при этом должен произвести хеширование (проверку) старой папки (если не производит сам - помогите ему сделать это), и будет докачивать только те серии которых у вас ещё нет. Старые серии при этом не удаляются, а продолжают раздаваться!
Eсли вы уже удалили старые серии, то предотвратить повторную закачку старых серий можно, отжав галочку в соответствующих местах при запуске нового торрента. По возможности, желательно не удалять старые серии как можно дольше, чтобы релизёр не столько продолжал раздавать старые серии, а смог сконцентрироваться на новых.
Совет для тех, кто не хочет ждать перехеширования:
Создайте ещё одну папку рядом с папкой сериала (рядом, а не в ней!!!). Каждую новую серию после удачной загрузки копируйте в новую папку так чтобы ваша основная папка всегда была пуста. Когда ваш новый торрент предложит вам закачать все файлы, выберете только последнюю. Для сидирования же укажите адрес новой папки.
Как закачать отдельный файл из торрента или докачать ранее пропущенные файлы торрента!
-
1. Открыть торрент
2. Снять галки с тех файлов торрента, которые мы не хотим закачивать. Оставляем только на нужных нам файлах (файле).
3. Нажать О.К.
В клиенте utorrent
Инструкция
1) Открыть торрент

2) Снять галки с тех файлов торрента, которые мы не хотим закачивать:
* либо вручную, снимая с каждого файла галку( скрин №1)
* либо, нажав кнопку "Снять метки (Select None)", сняв сразу со всех файлов(скрин №2)
№1

№2

Оставляем только на нужных нам файлах (файле).

3)Нажать О.К
-Добавлена шестая, заключительная, серия первого сезона-
Download / Скачать

Хотите скачать бесплатно? Зарегистрируйтесь на сайте (ссылка на регистрацию). Pirat.ca - самый быстрый торрент трекер в рунете!

Как скачивать  ·   Что такое торрент  ·   Рейтинг и ограничения



Последний раз редактировалось: kugesan (2016-03-18 00:46), всего редактировалось 5 раз(а)

Apostle358

Корсар

151

Пост 12-Мар-2016 19:09 (спустя 2 часа 39 минут)

[Q] 

Ну что же, как раз недавно перечитал, посмотрим, насколько соответствует книге. Отпишусь.
[Профиль]  [ЛС] 

Apostle358

Корсар

151

Пост 13-Мар-2016 13:26 (спустя 18 часов)

[Q] 

Мини обзор:
Всё-таки, быть русским - это состояние души, им надо родиться. Режиссер мыслит не как русский человек, потому выставил весь негатив в цвете пиндосовской аудитории, пошлость, разврат и весь негатив, который только можно выскрести из романа на первом плане. Посмотреть конечно можно, но только после прочтения самого произведения.
5 из 10.
[Профиль]  [ЛС] 

kugesan ®

56719

Пост 18-Мар-2016 00:46 (спустя 4 дня)

[Q] 

-Добавлена шестая, заключительная, серия первого сезона-

_________________

В мире две бесконечности: вселенная и человеческая глупость - Альберт Эйнштен
«Можно вытащить человека из грязи, но нельзя вытащить грязь из человека»!
[Профиль]  [ЛС] 

Пост 18-Мар-2016 21:50 (спустя 21 час)

Топик был перенесен из форума Сериалы в эфире в форум Зарубежные сериалы
Андря
 

Australian

38

Пост 19-Мар-2016 00:14 (спустя 23 часа)

[Q] 

Спасибо, посмотрим, что там Англичане наснимали. Бочка - в трюм!

_________________
Being quiet is fine, most people don’t listen anyways.
[Профиль]  [ЛС] 
Показать сообщения:    
Ответить на тему

Текущее время: Сегодня 08:07

Часовой пояс: GMT + 4



Вы не можете начинать темы
Вы не можете отвечать на сообщения
Вы не можете редактировать свои сообщения
Вы не можете удалять свои сообщения
Вы не можете голосовать в опросах
Вы не можете прикреплять файлы к сообщениям
Вы не можете скачивать файлы

▼ Вниз