ML
     
  Уважаемый Гость!
Вы можете поддержать проект и зарегистрироваться у наших партнеров - онлайн-стратегия MyLands. При регистрации в игре Вы получите код, который сможете активировать после регистрации на pirat.ca и получить 1000 дублонов.

Ваш код:
8b752b428cf60a012c159dcae592cd1392170115
 
     

Лунный свет / В лунном свете / Moonlight / Сезон: 1 / Серии: 1 - 16 из 16 (Род Холкомб /Rod Holcomb, Джерард Бокаччо / Gerard Bocaccio) [2007 г., ужасы, фэнтези, триллер, драма, DVDRip] Dub [+ Original (Eng)] (Рен-ТВ)

Ответить на тему
 
Автор
Сообщение

Пост 14-Мар-2016 10:53

[Q] 

somik

Легенда

-Лунный свет / В лунном свете / Moonlight-- Производство: США, Warner Bros / CBS
Жанр: ужасы, фэнтези, триллер, драма
Год выпуска: 2007 г.
Продолжительность: 00:43:00
Мировая премьера: 28 сентября 2007
Российская премьера: 30 января 2010
Перевод: Профессиональный (полное дублирование) [Рен-ТВ]
Оригинальный аудиопоток: английский
Режиссер: Род Холкомб /Rod Holcomb, Джерард Бокаччо / Gerard Bocaccio-В ролях: Алекс О’Локлин / Alex O'Loughlin (Mick St. John), София Майлс / Sophia Myles (Beth Turner), Джейсон Доринг / Jason Dohring (Josef Kostan) и другие.-Описание: Мик Сент-Джон — частный детектив и по совместительству вампир. В 1952 году, когда ему было тридцать, он женился на прекрасной Каролине, которая на поверку оказалась трёхсотлетней вампиршей. Желая остаться с Миком навечно, в первую брачную ночь она обратила его, после чего Мик покинул её. В 1985 году Каролина похитила четырёхлетнюю девочку по имени Бет Тёрнер. Мать Бет наняла Мика найти дочь. Обнаружив Бет и Каролину, Мик вступил со своей бывшей женой в схватку, окончившуюся видимой гибелью вампирши. С тех пор Мик не упускал Бет из виду, опекая её от сверхъестественной опасности и при этом оставаясь незамеченным.
В наше время Мик всё ещё работает частным детективом, отказывается пить живую человеческую кровь и помогает смертным. Бет стала интернет-журналисткой, постоянно попадающей в опасность, зачастую связанную с вампирами. Она вновь встречается с Миком во время расследования жестокого убийства, хотя она его не помнит. В конце концов Бет узнаёт, кем является Мик, и даже заводит с ним роман, хотя лучший друг Мика, четырёхсотлетний Джозеф Костан, советует ему не ввязываться в отношения со смертными. Но затем в отношения Мика и Бет врывается ошеломляющая правда — Каролина жива и каким-то образом смогла стать смертной, что является заветной мечтой Мика…-Качество видео: DVDRip
Контейнер: AVI
Видео кодек: Другой MPEG4
Аудио кодек: MP3
Видео: 688x384 (1.79:1), 23.976 fps, ~1500 kbps avg, 0.24 bit/pixel
Аудио: MP3, 2 ch, 128 Кбит/с
Аудио #2: MP3, 2 ch, 128 Кбит/с
Cубтитры: отсутствуют
Список серий:
1. "Вампиров не существует" / "No Such Thing As Vampires"
2. "Вести из прошлого" / "Out of the Past"
3. "Айболит" / "Dr. Feelgood"
4. "Лихорадка" / "Fever"
5. "Остановка в развитии" / "Arrested Development"
6. "Черный Кристалл" / "B.C."
7. "Двойник" / "The Ringer"
8. "12 часов 4 минуты" / "12:04 AM"
9. "Лилия" / "Fleur de Lis"
10. "Спящая красавица" / "Sleeping Beauty"
11. "Любовь живёт вечно" / "Love Lasts Forever"
12. "Лекарство от бессмертия" / "The Mortal Cure"
13."Обреченный притворяться""Fated to Pretend"
14.«Клик»" Click"
15."What's Left Behind "Что осталось в прошлом"
16. Next episode: Sonata Season Finales 2008
Понятия, принятые в сериале, основаны на уникальной мифологии вампиров. Вампиры сериала могут переносить некоторое количество солнечного света, хотя прямые лучи довольно быстро их иссушают. Поэтому, когда Мик появляется средь бела дня, он всегда в бейсболке и тёмных очках и старается держаться в тени. В отличие от вампира-детектива Ника Найта из телесериала «Рыцарь навсегда», вампиры «Лунного света» обязаны потреблять человеческую кровь (животная не подойдёт). В отличие от сериалов «Ангел», «Баффи — истребительница вампиров» и «Дневники вампира» деревянный кол не убивает этих вампиров, а лишь временно их парализует. Верными методами убийства вампиров являются обезглавливание и сожжение. Серебро также токсично для вампиров «Лунного света», но святая вода, распятия и чеснок безвредны. Хотя на фотографиях и киноплёнках вампиры получаются размытыми из-за использования серебра, на цифровые фотоаппараты и видеокамеры это не распространяется.
Вампиры этого мира намного сильнее, быстрее и выносливее обычного человека. В отличие от Ника Найта, летать они не умеют, но могут запрыгивать на крыши пятиэтажных зданий. Также эти вампиры имеют странную способность воспроизводить события недавнего прошлого по запаху (события прошлого показываются зрителю как флешбеки, Мик просто делает умозаключения, ориентируясь на человеческое и вампирское чутье). Также Мик может заглядывать в будущее. Гипнозом вампиры не владеют, в отличие от вампиров сериала «Кровные узы» и «Дневники вампира».
Формат : AVI
Формат/Информация : Audio Video Interleave
Размер файла : 556 Мбайт
Продолжительность : 44 м.
Общий поток : 1766 Кбит/сек
Программа кодирования : VirtualDubModRus 1.5.10.1 (build 2439/release)
Библиотека кодирования : VirtualDubMod build 2439/release
Видео
Идентификатор : 0
Формат : MPEG-4 Visual
Профиль формата : Advanced [email protected]
Параметр BVOP формата : 1
Параметр QPel формата : Нет
Параметр GMC формата : Без точки перехода
Параметр матрицы формата : Default (MPEG)
Режим смешивания : Сжатый битовый поток
Идентификатор кодека : XVID
Идентификатор кодека/Подсказка : XviD
Продолжительность : 44 м.
Битрейт : 1496 Кбит/сек
Ширина : 688 пикселей
Высота : 384 пикселя
Соотношение сторон : 16:9
Частота кадров : 23,976 (24000/1001) кадра/сек
Цветовое пространство : YUV
Субдискретизация насыщенности : 4:2:0
Битовая глубина : 8 бит
Тип развёртки : Прогрессивная
Метод сжатия : С потерями
Бит/(Пиксели*Кадры) : 0.236
Размер потока : 471 Мбайт (85%)
Библиотека кодирования : XviD 1.2.0.dev47 (UTC 2006-11-01)
Аудио #1
Идентификатор : 1
Формат : MPEG Audio
Версия формата : Version 1
Профиль формата : Layer 3
Режим : Joint stereo
Расширение режима : MS Stereo
Идентификатор кодека : 55
Идентификатор кодека/Подсказка : MP3
Продолжительность : 43 м.
Вид битрейта : Постоянный
Битрейт : 128 Кбит/сек
Каналы : 2 канала
Частота : 48,0 КГц
Метод сжатия : С потерями
Размер потока : 40,3 Мбайт (7%)
Выравнивание : Соединение по промежуткам
Продолжительность промежутка : 42 мс. (1,00 видеокадр)
Время предзагрузки промежутка : 504 мс.
Аудио #2
Идентификатор : 2
Формат : MPEG Audio
Версия формата : Version 1
Профиль формата : Layer 3
Режим : Joint stereo
Расширение режима : MS Stereo
Идентификатор кодека : 55
Идентификатор кодека/Подсказка : MP3
Продолжительность : 44 м.
Вид битрейта : Постоянный
Битрейт : 128 Кбит/сек
Каналы : 2 канала
Частота : 48,0 КГц
Метод сжатия : С потерями
Размер потока : 40,3 Мбайт (7%)
Выравнивание : Соединение по промежуткам
Продолжительность промежутка : 42 мс. (1,00 видеокадр)
Время предзагрузки промежутка : 504 мс.
Библиотека кодирования : LAME3.97
Настройки программы : -m j -V 4 -q 2 -lowpass 17 -b 128
Download / Скачать

Хотите скачать бесплатно? Зарегистрируйтесь на сайте (ссылка на регистрацию). Pirat.ca - самый быстрый торрент трекер в рунете!

Как скачивать  ·   Что такое торрент  ·   Рейтинг и ограничения

somik ®

Легенда

26680

Пост 14-Мар-2016 10:59 (спустя 6 минут)

[Q] 

Не люблю фильмы про вампиров, но сущность детектива Мика Сент-Джона только помогает ему служить людям.

_________________
Всё когда-нибудь уже было... В интернете!
[Профиль]  [ЛС] 

Пост 14-Мар-2016 18:22 (спустя 7 часов)

Топик был перенесен из форума Зарубежные сериалы (Трюм) в форум Зарубежные сериалы
erchine
 

somik ®

Легенда

26680

Пост 14-Мар-2016 18:51 (спустя 7 часов)

[Q] 

Спасибо за проверку, erchint. Понравилось? Есть замечания?

_________________
Всё когда-нибудь уже было... В интернете!
[Профиль]  [ЛС] 

somik ®

Легенда

26680

Пост 14-Мар-2016 23:13 (спустя 4 часа)

[Q] 

Приношу свои извинения erchine! Я стар, плохо вижу. Буду внимательней, виноват. ah

_________________
Всё когда-нибудь уже было... В интернете!
[Профиль]  [ЛС] 

Seifer_Almasy

Корсар

Пост 16-Мар-2016 21:24 (спустя 1 день 22 часа)

[Q] 

Зачем в описании половину сюжета накалякали?
[Профиль]  [ЛС] 

somik ®

Легенда

26680

Пост 16-Мар-2016 23:40 (спустя 2 часа 15 минут)

[Q] 

740698Зачем в описании половину сюжета накалякали?
Модераторов боюсь. ca

_________________
Всё когда-нибудь уже было... В интернете!
[Профиль]  [ЛС] 
Показать сообщения:    
Ответить на тему

Текущее время: Сегодня 06:24

Часовой пояс: GMT + 4



Вы не можете начинать темы
Вы не можете отвечать на сообщения
Вы не можете редактировать свои сообщения
Вы не можете удалять свои сообщения
Вы не можете голосовать в опросах
Вы не можете прикреплять файлы к сообщениям
Вы не можете скачивать файлы

▼ Вниз