ML
     
  Уважаемый Гость!
Вы можете поддержать проект и зарегистрироваться у наших партнеров - онлайн-стратегия MyLands. При регистрации в игре Вы получите код, который сможете активировать после регистрации на pirat.ca и получить 1000 дублонов.

Ваш код:
0ea1bf889af42fca5f67d0a391efb3400850ad7c
 
     

Вероника Марс / Veronica Mars / Сезон: 1 / Серии: 1 - 22 из 22 (Роб Томас / Rob Thomas) [2004 г., Семейный, Детектив, Комедия, Драма, DVDRip] MVO [+ Original (Eng)] (НТВ)

Ответить на тему
 
Автор
Сообщение

Пост 15-Мар-2016 09:23

[Q] 

somik

Легенда

-Вероника Марс / Veronica Mars-- Производство: США, Rob Thomas Productions, Warner Bros. Digital Distribution
Жанр: Семейный, Детектив, Комедия, Драма
Год выпуска: 2004 г.
Продолжительность: 00:42:00
Мировая премьера: 22 сентября 2004
Перевод: Профессиональный (многоголосый, закадровый) [НТВ]
Оригинальный аудиопоток: английский
Режиссер: Роб Томас / Rob Thomas-В ролях: Кристен Белл, Перси Даггс III, Джейсон Доринг, Фрэнсис Капра, Энрико Колантони, Райан Хансен, Тедди Данн, Майкл Мюней, Тина Мажорино, Брэндон Хиллок-Описание: Школьница Вероника Марс, унаследовав от отца недюжинные аналитические способности и решительность, занимается детективной работой в школе — выручает друзей, проучивает недругов. Отец Вероники потерял работу шерифа, от него ушла жена, он занялся частным розыском, Вероника во всем ему помогает.-
Качество видео: DVDRip
Контейнер: AVI
Видео кодек: XviD
Аудио кодек: MP3
Видео: 624x352 (1.78:1), 23.976 fps, XviD MPEG-4 ~1050 kbps avg, 0.205 bit/pixel
Аудио: 48 kHz, MPEG Layer 3, 2 ch, 128.00 kbps MVO (НТВ)
Аудио #2: 48 kHz, MPEG Layer 3, 2 ch, 128.00 kbps Original
Cубтитры: отсутствуют
Сериал рассказывает о жителях прибрежного городка Нептуна, где богатые и сильные мира сего устанавливают правила, в их власти находятся город и старшая школа, а сами они отчаянно пытаются сохранить свои секреты. К несчастью для них, есть Вероника Марс, умная и бесстрашная 18-ти летняя девушка, помощница частного детектива - своего отца.
Вероника была обычной девушкой, пока ее лучшую подругу Лилли не убили, а отца не лишили должности шерифа. Ее мать ушла из семьи, от них отвернулись почти все, а одна из вечеринок после смерти Лилли меняет Веронику навсегда. Но теперь у нее есть цель - узнать что случилось с Лилли Кейн.
Список серий 1 сезона:
101 - Pilot / Пилот
102 - Credit Where Credit’s Due / Вера вере рознь
103 - Meet John Smith / Знакомьтесь, Джон Смит
104 - The Wrath Of Con / Причина противоречий
105 - You Think You Know Somebody / Кажется, что знаешь человека…
106 - Return Of The Kane / Возвращение Кейна
107 - The Girl Next Door / Соседка
108 - Like A Virgin / Словно девственница
109 - Drinking The Kool-Aid / Освежающий напиток
110 - An Echolls Family Christmas / Рождество семейства Экхолз
111 - Silence Of The Lamb / Молчание Лэмба
112 - Clash Of The Tritons / Битва Тритонов
113 - Lord Of The Bling / Властелин яркой жизни
114 - Mars vs. Mars / Марс против Марса
115 - Ruskie Business / Русский бизнес
116 - Betty & Veronica / Бэтти и Вероника
117 - Kanes & Abel’s / Семья Кейнов и Эйблов
118 - Weapons Of Class Destruction / Оружие классового уничтожения
119 - Hot Dogs / Собака дня
120 - M.A.D. / Сумасшествие
121 - A Trip To The Dentist / Путешествие к дантисту
122 - Leave It To Beaver / Предоставьте это Биверу
В 2005 году Кристен Белл номинирована на премию "Лучшая телеактриса"
«Вероника Марс» (англ. Veronica Mars) — американский телесериал, молодёжная детективная драма, рассказывающая о девочке-подростке Веронике, которая помогает своему отцу, частному детективу, в его расследованиях. Автор идеи — Роб Томас. Главную роль исполнила актриса Кристен Белл. Шоу продержалось в эфире три сезона — премьера состоялась 22 сентября 2004 года на канале «UPN», а финал транслировался 22 мая 2007 года на канале «The CW Television Network». Продюсированием занимались компании «Warner Bros. Television», «Silver Pictures Television», «Stu Segall Productions, Inc.» и «Rob Thomas Productions». Джоэль Сильвер и Роб Тома оставались исполнительными продюсерами шоу на протяжении всех сезонов, а Дайан Раггьеро взяла на себя эти функции лишь в третьем.
Действие происходит в вымышленном калифорнийском городке Нептун, а в центре сюжета — девочка-подросток Вероника, старшеклассница, которая проводит время после школы, работая на своего отца, частного сыщика, собирая для жён доказательства измены их мужей, а также различную работу по офису. В каждом эпизоде Вероника берётся за одно-два новых дела, попутно пытаясь раскрыть главные тайны сезона. В первых двух сезонах — в период обучения Вероники в школе — главная загадка раскрывается в финальном эпизоде, в то время как в третьем больше не связанных друг с другом секретов отдельных персонажей.
Первоначально Роб Томас писал «Веронику Марс» как роман для подростков с мужским центральным персонажем. Однако для работы над сериалом, Томас сделал вывод, что история в стиле нуар, рассказанная с женской точки зрения будет более самобытной и оригинальной. Съёмки начались в марте 2004 года, а пилотный эпизод, вышедший в эфир в сентябре того же года, собрал 2,49 миллиона зрителей в Америке. В среднем, каждый эпизод первого сезона собирал около 2,5 миллионов зрителей, а критики высоко оценили новое шоу. Сериал появился в различных списках лучших шоу того года, а также выиграл несколько наград и номинаций. Во время премьерного показа, сериал заработал две номинации на премию «Satellite Awards», четыре «Saturn Award», пять «Teen Choice Awards», а также попал в список лучших проектов от «American Film Institute (AFI)» за 2005 год. После закрытия сериала ходили слухи о возможном полнометражном фильме, который и появился в 2014 году.
General
Format : AVI
Format/Info : Audio Video Interleave
File size : 403 MiB
Duration : 42mn 46s
Overall bit rate : 1 317 Kbps
Writing application : VirtualDubMod 1.5.10.2 (build 2542/release)
Writing library : VirtualDubMod build 2542/release
Video
ID : 0
Format : MPEG-4 Visual
Format profile : Advanced [email protected]
Format settings, BVOP : 1
Format settings, QPel : No
Format settings, GMC : No warppoints
Format settings, Matrix : Default (MPEG)
Codec ID : XVID
Codec ID/Hint : XviD
Duration : 42mn 46s
Bit rate : 1 047 Kbps
Width : 624 pixels
Height : 352 pixels
Display aspect ratio : 16:9
Frame rate : 23.976 fps
Color space : YUV
Chroma subsampling : 4:2:0
Bit depth : 8 bits
Scan type : Progressive
Compression mode : Lossy
Bits/(Pixel*Frame) : 0.199
Stream size : 320 MiB (79%)
Writing library : XviD 1.2.0.dev47 (UTC 2006-11-01)
Audio #1
ID : 1
Format : MPEG Audio
Format version : Version 1
Format profile : Layer 3
Codec ID : 55
Codec ID/Hint : MP3
Duration : 42mn 46s
Bit rate mode : Constant
Bit rate : 128 Kbps
Channel(s) : 2 channels
Sampling rate : 48.0 KHz
Compression mode : Lossy
Stream size : 39.2 MiB (10%)
Alignment : Aligned on interleaves
Interleave, duration : 42 ms (1.00 video frame)
Interleave, preload duration : 504 ms
Writing library : LAME3.97
Encoding settings : -m s -V 4 -q 2 -lowpass 17 -b 128
Audio #2
ID : 2
Format : MPEG Audio
Format version : Version 1
Format profile : Layer 3
Codec ID : 55
Codec ID/Hint : MP3
Duration : 42mn 46s
Bit rate mode : Constant
Bit rate : 128 Kbps
Channel(s) : 2 channels
Sampling rate : 48.0 KHz
Compression mode : Lossy
Stream size : 39.2 MiB (10%)
Alignment : Aligned on interleaves
Interleave, duration : 42 ms (1.00 video frame)
Interleave, preload duration : 504 ms
Writing library : LAME3.97
Encoding settings : -m s -V 4 -q 2 -lowpass 17 -b 128
Download / Скачать

Хотите скачать бесплатно? Зарегистрируйтесь на сайте (ссылка на регистрацию). Pirat.ca - самый быстрый торрент трекер в рунете!

Как скачивать  ·   Что такое торрент  ·   Рейтинг и ограничения

somik ®

Легенда

26764

Пост 20-Мар-2016 02:45 (спустя 4 дня)

[Q] 

Хоть кому-нибудь сериал понравился? Дальше заливать? Всего три сезона.

_________________
Всё когда-нибудь уже было... В интернете!
[Профиль]  [ЛС] 
Показать сообщения:    
Ответить на тему

Текущее время: Сегодня 00:37

Часовой пояс: GMT + 4



Вы не можете начинать темы
Вы не можете отвечать на сообщения
Вы не можете редактировать свои сообщения
Вы не можете удалять свои сообщения
Вы не можете голосовать в опросах
Вы не можете прикреплять файлы к сообщениям
Вы не можете скачивать файлы

▼ Вниз