ML
     
  Уважаемый Гость!
Вы можете поддержать проект и зарегистрироваться у наших партнеров - онлайн-стратегия MyLands. При регистрации в игре Вы получите код, который сможете активировать после регистрации на pirat.ca и получить 1000 дублонов.

Ваш код:
5f4e94775bc0501caff7b254e79328d304c817d9
 
     

Детектив Дрезден: Секретные материалы / Досье Дрездена / The Dresden Files / Сезон: 1 из 1 / Серии: 1-12 из 12 (Дэвид Карсон / David Carson, Майкл Гроссман / Michael Grossman, Джеймс А. Контнер /James A. Contner) [2007 г., фэнтези, детектив, HDTVRip]

Ответить на тему
 
Автор
Сообщение

Пост 17-Мар-2016 13:42

[Q] 

somik

Легенда

-Детектив Дрезден: Секретные материалы / Досье Дрездена / The Dresden Files-- Производство: Канада, США - Dresden Files Productions, Lions Gate Entertainment, NBC Universal Television, Saturn Films
Жанр: фэнтези, детектив
Год выпуска: 2007 г.
Продолжительность: 00:43:00
Мировая премьера: 21 января 2007
Дата выхода DVD: 11 сентября 2008, «CP-Digital»
Перевод: Профессиональный (одноголосый, закадровый) [LostFilm ]
Режиссер: Дэвид Карсон / David Carson, Майкл Гроссман / Michael Grossman, Джеймс А. Контнер /James A. Contner-В ролях: Пол Блекторн, Валери Крус, Терренс Манн, Рауль Банеджа, Конрад Коутс, Мэтт Гордон, Джонатан Хиггинс, Дэниэл Кэш, Джоэнн Келли, Мэттью Найт-Описание: Гарри Дрезден — единственный чародей, который дает объявления в Чикагскую телефонную книгу. Он грешит, но и против него «грешат». Но во тьме его прошлого, он находит внутренние силы и неистовое желание поступать правильно. Вооруженный верным посохом и обаянием, и при содействии своего надоедливого духа-справочника Боба, Дрезден защитит неудачника от всевозможных сверхъестественных опасностей — всего за пять сотен долларов в день. Плюс дополнительные расходы. Но если фокус становится покусом, если начинаются… странности, если вещи, рухнувшие в ночи, начинают обладать мощной силой…«один звонок — и его клюшка, к вашим услугам».-
Качество видео: HDTVRip
Контейнер: AVI
Видео кодек: XviD
Аудио кодек: MP3
Видео: 624x352 (16:9), 23.976 fps, XviD MPEG-4, ~973 Kbps avg, 0.185 bit/pixel
Аудио: 48.0 KHz, MPEG Layer 3, 2 channels, ~192 Kbps avg
Cубтитры: отсутствуют
Список серий:
1 - Птицы одного полета Birds of a Feather
2 - Идентификация Буна The Boone Identity
3 - Похмелье Hair of the Dog
4 - В любви как на войне Rules of Engagement
5 - Вражда Bad Blood
6 - Воскрешение Soul Beneficiary
7 - Стены Walls
8 - Гроза из преисподней Storm Front
9 - Другой детектив The Other Dick
10 - Что случилось с Бобом? What About Bob?
11 - Наступающее нечто Things That Go Bump
12 - Другой город Second City
Мужчин в магию!
Этот сериал можно сравнить с «Зачарованными» — основное отличие в том, что вместо трех ведьм здесь центральной фигурой выступает ведьмак, т. е. лицо мужского пола, а так все остальное — прям один в один с «Зачарованными» — демоны, темные и светлые силы, магия и т. д. Однако в этом нет ничего плохо — не все же только женщинам быть специалистами в области магии и колдовства, сериал прекрасный — запоминающийся главный герой и неплохой юмор дают возможность поставить этому сериалу
8 из 10
Domen
В целом неплохо.
Главный герой — довольно харизматичен. Друг (призрак) и Подруга (детектив) — чуть в меньшей мере, хотя тоже милы и интересны. Но из всех героев хотелось бы понаблюдать за карьерой исключительно Валери Крус.. Есть в ней что-то интересное и многообещающее, хотя тут не особо раскрытое.
Сериал смотреть не скучно, хотя второй раз не тянет, как и нет большого желания сохранять в коллекцию.
Не хватает:
- временами — логичности сценария, особенно во второй половине (к сожалению, если честно, «мир» не проработан целиком логично и качественно, как и некоторые характеры и поступки, и не выглядят естественно).
- харизматичных второстепенных персонажей, в дополнение к трём основным.
- индивидуальности и изюминки (Если Вы знакомы с рядом других подобных сериалов о магии, сверхъестественном или вампирах, то ничего особенно нового Вы не увидите. Исключительно те же идеи, чуть в других декорациях).
На один раз и в хорошей компании очень даже подойдёт…
6 из 10
Szurek
Format : AVI
Format/Info : Audio Video Interleave
File size : 358 MiB
Duration : 42mn 35s
Overall bit rate : 1 175 Kbps
Writing application : VirtualDubMod 1.5.10.1 (build 2366/release)
Writing library : VirtualDubMod build 2366/release
Video
ID : 0
Format : MPEG-4 Visual
Format profile : Advanced [email protected]
Format settings, BVOP : 2
Format settings, QPel : No
Format settings, GMC : No warppoints
Format settings, Matrix : Default (H.263)
Muxing mode : Packed bitstream
Codec ID : XVID
Codec ID/Hint : XviD
Duration : 42mn 35s
Bit rate : 973 Kbps
Width : 624 pixels
Height : 352 pixels
Display aspect ratio : 16:9
Frame rate : 23.976 fps
Color space : YUV
Chroma subsampling : 4:2:0
Bit depth : 8 bits
Scan type : Progressive
Compression mode : Lossy
Bits/(Pixel*Frame) : 0.185
Stream size : 297 MiB (83%)
Writing library : XviD 1.2.0.dev47 (UTC 2006-11-01)
Audio
ID : 1
Format : MPEG Audio
Format version : Version 1
Format profile : Layer 3
Mode : Joint stereo
Codec ID : 55
Codec ID/Hint : MP3
Duration : 42mn 33s
Bit rate mode : Constant
Bit rate : 192 Kbps
Channel(s) : 2 channels
Sampling rate : 48.0 KHz
Compression mode : Lossy
Stream size : 58.4 MiB (16%)
Alignment : Aligned on interleaves
Interleave, duration : 42 ms (1.00 video frame)
Interleave, preload duration : 504 ms
Download / Скачать

Хотите скачать бесплатно? Зарегистрируйтесь на сайте (ссылка на регистрацию). Pirat.ca - самый быстрый торрент трекер в рунете!

Как скачивать  ·   Что такое торрент  ·   Рейтинг и ограничения

somik ®

Легенда

26521

Пост 17-Мар-2016 13:46 (спустя 3 минуты)

[Q] 

Ну, настоящий волшебник!
Сериал для любителей магии и детективов. fg

_________________
Всё когда-нибудь уже было... В интернете!
[Профиль]  [ЛС] 

Пост 17-Мар-2016 20:11 (спустя 6 часов)

Топик был перенесен из форума Зарубежные сериалы (Трюм) в форум Зарубежные сериалы
erchine
 
Показать сообщения:    
Ответить на тему

Текущее время: Сегодня 15:37

Часовой пояс: GMT + 4



Вы не можете начинать темы
Вы не можете отвечать на сообщения
Вы не можете редактировать свои сообщения
Вы не можете удалять свои сообщения
Вы не можете голосовать в опросах
Вы не можете прикреплять файлы к сообщениям
Вы не можете скачивать файлы

▼ Вниз