ML
     
  Уважаемый Гость!
Вы можете поддержать проект и зарегистрироваться у наших партнеров - онлайн-стратегия MyLands. При регистрации в игре Вы получите код, который сможете активировать после регистрации на pirat.ca и получить 1000 дублонов.

Ваш код:
b70663c760e7cd2521b8e123786cdd788200e3bd
 
     

Охотники за нечистью / Особое подразделение №2 (Сезон 1 и 2) / Special Unit 2 / Сезон: 1-2 из 2 / Серии: 1-19 из 19 (Джон Т. Кречмер / John T. Kretchmer, Оскар Л. Косто / Oscar L. Costo, Пол Абаскал /Paul Abascal) [2001 г., ужасы, боевик, драма, коме

Ответить на тему
 
Автор
Сообщение

Пост 20-Мар-2016 06:27

[Q] 

somik

Легенда

-Охотники за нечистью / Особое подразделение №2 (Сезон 1 и 2) / Special Unit 2-- Производство: США, Paramount Television, Rego Park спецэффекты Amalgamated Pixels, Northwest Imaging & FX, Tatopoulos Studios, Patrick Tatopoulos Design Inc
Жанр: ужасы, боевик, драма, комедия
Год выпуска: 2001 г.
Продолжительность: 00:43:00
Мировая премьера: 11 апреля 2001
Российская премьера: 12 ноября 2007 ТВ3
Перевод: Профессиональный (многоголосый, закадровый) [ТВ-3]
Режиссер: Джон Т. Кречмер / John T. Kretchmer, Оскар Л. Косто / Oscar L. Costo, Пол Абаскал /Paul Abascal-В ролях: Детектив Ник О'Маллей - Майкл Ландес, Детектив Кейт Бенсон - Алексондра Ли, Капитан Ричард Пэйдж - Ричард Гэнт, Карл - Дэнни Вудбёрн, Шон Рэдмонд - Шон Уэйлен, Джонатан - Джонатан Того-Описание: Ну, кому может прийти на ум, что все сказочные негативные персонажи, монстры, упыри и вурдалаки, вполне реальные создания? Монстры решили поселиться в Чикаго, невзирая на обеспокоенную суету людей вокруг них… Полиция Чикаго оперативно создает отряд специального назначения, в компетенцию которого входит обнаружение и немедленное уничтожение нечисти. Кейт Бенсон, обладающая способностью видеть то, что скрыто глазу обыкновенного человека, принята в отряд. Теперь ей предстоит захватывающее приключение, о котором ранее было бы смешно даже подумать…
Главные герои сериала работают на секретное подразделение полиции города Чикаго под названием Особое подразделение 2, чья задача - контроль большого населения мифических существ в городе. Этих существ называют "звеньями".
"Звенья" - общие чудовища из фольклора и мифологии (кроме вампиров, существование которых обьявлено нелепым), которые являются затерянным звеном эволюции обезьны в человека (хотя другие человекоподобные виды также были показаны; например, горгульи - гуманоидные потомки динозавров). Они прячутся среди людей. Если человек увидит звено, то он просто считает что это иллюзия или галлюцинация, кроме особенно проницательных.
Детектив Ник О'Маллей и его новая напарница детектив Кейт Бенсон - главные персонажи сериала. Ник - "одинокий волк" и ветеран подразделения. Его изначально чёрствое, заезженное, и немного жестокое поведение обьясняется потерей своей предыдущей напарницы (и любовницы) на задании по поимке особо кровожадного звена. Кейт - одна из немногих кто признаёт существование звеньев, а не ищет более "нормальное" обьяснение.
Их начальник - капитан Ричард Пэйдж, который потерял руку на войне и носит деревянный протез. "Связной" подразделения к звеньям - гном-клептоман по имени Карл, язык которого часто доводит его к драке с Ником. За то что он помогает Нику и Кейт находить своих "собратьев", она закрывают глаза на его бесчётное колличество преступлений (в основном, краж и ограблений). Изначально, техником подразделения был Шон Рэдмон, которого впоследствии заменил Джонатан.-
Качество видео: TVRip
Контейнер: AVI
Видео кодек: XviD
Аудио кодек: MP3
Видео: XviD 1.2.127, 576х432, 25 кадров/с, 1044 кбит/с (серии 2х11-13 Divx 6.2.2)
Аудио: Mp3, 128 кбит/с, sample rate 48 kHz, 2 канала
Cубтитры: отсутствуют
«Охотники за нечистью» (англ. Special Unit 2, дословно — «Особое подразделение №2») — короткий американский комедийный телесериал ужасов, который был показан на канале UPN в 2001 году. Главные герои сериала работают на секретное подразделение полиции города Чикаго под названием «Особое подразделение №2», чья задача — контроль большого населения мифических существ в городе. Этих существ называют «звеньями».
Главная ценность этого сериала в том, что он действительно получился очень забавным. Смотрите сами: во время охоты за монстром, похожим на человека-амфибию (на самом деле просто человек в костюме) и отказе пистолетов (которые и на пистолеты не похожи, это просто пластмассовые игрушки) герои не теряют присутствия духа и начинают атаковать пришельца сковородками и подручными предметами. В другом проекте это все выглядело бы дешево и печально. Но в контексте данного сериала положительные эмоции вам обеспечены.
Ведь правда, телевидение должно быть разнообразным. И зачем всегда делать все так серьезно. Именно этим картина и порадовала — у нее свой подход, свой юмор. Добавьте сюда кучу монстров и прочей нечисти т. е. потустороннюю составляющую (пусть выполненную не совсем реалистично, но здесь это не главное), не плохую команду, по борьбе с ними и пару интересных и забавных моментов — в итоге получается сериал для поднятия настроения, при этом довольно веселый и расслабляющий, хотя временами и очень серьезный.
1-16 серии
Формат : AVI
Формат/Информация : Audio Video Interleave
Размер файла : 352 Мбайт
Продолжительность : 41 м.
Общий поток : 1174 Кбит/сек
Библиотека кодирования : VirtualDub-MPEG2 build 18289/release
Видео
Идентификатор : 0
Формат : MPEG-4 Visual
Профиль формата : Advanced [email protected]
Параметр BVOP формата : 1
Параметр QPel формата : Нет
Параметр GMC формата : Без точки перехода
Параметр матрицы формата : Выборочная
Идентификатор кодека : XVID
Идентификатор кодека/Подсказка : XviD
Продолжительность : 41 м.
Битрейт : 1036 Кбит/сек
Ширина : 576 пикселей
Высота : 432 пикселя
Соотношение сторон : 4:3
Частота кадров : 25,000 кадров/сек
Цветовое пространство : YUV
Субдискретизация насыщенности : 4:2:0
Битовая глубина : 8 бит
Тип развёртки : Прогрессивная
Метод сжатия : С потерями
Бит/(Пиксели*Кадры) : 0.167
Размер потока : 311 Мбайт (88%)
Библиотека кодирования : XviD 1.2.0.dev47 (UTC 2006-11-01)
Аудио
Идентификатор : 1
Формат : MPEG Audio
Версия формата : Version 1
Профиль формата : Layer 3
Режим : Joint stereo
Расширение режима : MS Stereo
Идентификатор кодека : 55
Идентификатор кодека/Подсказка : MP3
Продолжительность : 41 м.
Вид битрейта : Постоянный
Битрейт : 128 Кбит/сек
Каналы : 2 канала
Частота : 48,0 КГц
Метод сжатия : С потерями
Размер потока : 38,4 Мбайт (11%)
Выравнивание : Разделение по промежуткам
Продолжительность промежутка : 40 мс. (1,00 видеокадр)
Время предзагрузки промежутка : 500 мс.
17-19
Формат : AVI
Формат/Информация : Audio Video Interleave
Размер файла : 353 Мбайт
Продолжительность : 42 м.
Общий поток : 1164 Кбит/сек
Библиотека кодирования : VirtualDub-MPEG2 build 18289/release
Видео
Идентификатор : 0
Формат : MPEG-4 Visual
Параметр BVOP формата : 2
Параметр QPel формата : Нет
Параметр GMC формата : Без точки перехода
Параметр матрицы формата : Default (H.263)
Режим смешивания : Сжатый битовый поток
Идентификатор кодека : DX50
Идентификатор кодека/Подсказка : DivX 5
Продолжительность : 42 м.
Битрейт : 1026 Кбит/сек
Ширина : 576 пикселей
Высота : 432 пикселя
Соотношение сторон : 4:3
Частота кадров : 25,000 кадров/сек
Цветовое пространство : YUV
Субдискретизация насыщенности : 4:2:0
Битовая глубина : 8 бит
Тип развёртки : Прогрессивная
Метод сжатия : С потерями
Бит/(Пиксели*Кадры) : 0.165
Размер потока : 311 Мбайт (88%)
Библиотека кодирования : DivX 6.2.2 (UTC 2006-04-26)
Аудио
Идентификатор : 1
Формат : MPEG Audio
Версия формата : Version 1
Профиль формата : Layer 3
Режим : Joint stereo
Расширение режима : MS Stereo
Идентификатор кодека : 55
Идентификатор кодека/Подсказка : MP3
Продолжительность : 42 м.
Вид битрейта : Постоянный
Битрейт : 128 Кбит/сек
Каналы : 2 канала
Частота : 48,0 КГц
Метод сжатия : С потерями
Размер потока : 38,8 Мбайт (11%)
Выравнивание : Разделение по промежуткам
Продолжительность промежутка : 40 мс. (1,00 видеокадр)
Время предзагрузки промежутка : 500 мс.
Download / Скачать

Хотите скачать бесплатно? Зарегистрируйтесь на сайте (ссылка на регистрацию). Pirat.ca - самый быстрый торрент трекер в рунете!

Как скачивать  ·   Что такое торрент  ·   Рейтинг и ограничения

somik ®

Легенда

26676

Пост 20-Мар-2016 06:30 (спустя 2 минуты)

[Q] 

Для любителей сказочных детективов. На любителя

_________________
Всё когда-нибудь уже было... В интернете!
[Профиль]  [ЛС] 

Пост 20-Мар-2016 09:50 (спустя 3 часа)

Топик был перенесен из форума Зарубежные сериалы (Трюм) в форум Зарубежные сериалы
erchine
 

jofrei53

Корсар

Пост 20-Мар-2016 11:22 (спустя 4 часа)

[Q] 

Спасибо! Заинтересовало....Посмотрим. Спасибо!!! Автору респект!!!
[Профиль]  [ЛС] 
Показать сообщения:    
Ответить на тему

Текущее время: Сегодня 00:22

Часовой пояс: GMT + 4



Вы не можете начинать темы
Вы не можете отвечать на сообщения
Вы не можете редактировать свои сообщения
Вы не можете удалять свои сообщения
Вы не можете голосовать в опросах
Вы не можете прикреплять файлы к сообщениям
Вы не можете скачивать файлы

▼ Вниз