ML
     
  Уважаемый Гость!
Вы можете поддержать проект и зарегистрироваться у наших партнеров - онлайн-стратегия MyLands. При регистрации в игре Вы получите код, который сможете активировать после регистрации на pirat.ca и получить 1000 дублонов.

Ваш код:
db0e0ad91548759ffeb9bb88bed405e1a4b3c165
 
     

Лучше звоните Солу / Better Call Saul / Сезон: 2 / Серии: 1-10 (10) (Адам Бернштейн / Adam Bernstein, ...) [2016 г., драма, комедия, криминал, WEB-DL, 1080p] MVO (LostFilm) + Original (Eng) + Sub (Rus, Eng)

Ответить на тему
 
Автор
Сообщение

Пост 20-Мар-2016 20:01

[Q] 

TERMOS

Легенда

-Лучше звоните Солу / Better Call Saul
(2 сезон)
-- Производство: США
Жанр: драма, комедия, криминал
Год выпуска: 2016 г.
Продолжительность: 10x ~00:45:00
Перевод: Профессиональный (многоголосый, закадровый) [LostFilm]
Оригинальный аудиопоток: английский
Режиссер: Адам Бернштейн / Adam Bernstein, Лариса Кондрацки / Larysa Kondracki, Томас Шнауз / Thomas Schnauz, ...-В ролях: Боб Оденкёрк, Ри Сихорн, Патрик Фабиан, Майкл МакКин, Майкл Мэндо, Джонатан Бэнкс, Ген Н. Чавес, Джил Мюррэй-Описание: История об испытаниях и невзгодах, которые приходится преодолеть Солу Гудману, адвокату по уголовным делам, в тот период, когда он пытается открыть свою собственную адвокатскую контору в Альбукерке, штат Нью-Мексико. Cпин-офф сериала «Во все тяжкие».
- -Качество видео: WEB-DL
Контейнер: MKV
Стандарт разрешения: 1080p
Видео кодек: H.264/AVC
Аудио кодек: AC3
Видео: 1916x1076 at 23.976 fps, ~5000 kbps avg
Аудио: Russian: 48 kHz, AC3, 3/2 (L,C,R,l,r) + LFE ch, ~384.00 kbps avg |Многоголосый закадровый, LostFilm|
Аудио #2: English: 48 kHz, AC3, 3/2 (L,C,R,l,r) + LFE ch, ~384.00 kbps avg
Cубтитры: Russian, English
01. Переключатель / Switch
02. Пирог /Cobbler
03. Амарильо /Amarillo
04. Без перчаток / Gloves Off
05. Ребекка / Rebecca
06. Бали Хай / Bali Ha'i
07. Надувной / Inflatable
08. Фифи / Fifi
09. На волоске / Nailed
10. Щёлк! / Klick
Код:
Complete name               : W:\Uploads\Pirat.Ca\Better Call Saul - Season 02 (2016)[1080p.WEB-DL.Rus.Eng]\Better.Call.Saul.S02E01.1080p.WEB-DL.Rus.Eng.mkv
Format                      : Matroska
Format version              : Version 2
File size                   : 1.95 GiB
Duration                    : 46mn 55s
Overall bit rate            : 5 951 Kbps
Encoded date                : UTC 2016-02-25 20:28:24
Writing application         : mkvmerge v7.9.0 ('Birds') 64bit
Writing library             : libebml v1.3.1 + libmatroska v1.4.2
DURATION                    : 00:45:10.860000000
NUMBER_OF_FRAMES            : 689
NUMBER_OF_BYTES             : 31541
_STATISTICS_WRITING_APP     : mkvmerge v7.9.0 ('Birds') 64bit
_STATISTICS_WRITING_DATE_UT : 2016-02-25 20:28:24
_STATISTICS_TAGS            : BPS DURATION NUMBER_OF_FRAMES NUMBER_OF_BYTES
Video
ID                          : 1
Format                      : AVC
Format/Info                 : Advanced Video Codec
Format profile              : [email protected]
Format settings, CABAC      : Yes
Format settings, ReFrames   : 4 frames
Codec ID                    : V_MPEG4/ISO/AVC
Duration                    : 46mn 55s
Bit rate                    : 5 064 Kbps
Width                       : 1 916 pixels
Height                      : 1 076 pixels
Display aspect ratio        : 16:9
Frame rate mode             : Constant
Frame rate                  : 23.976 fps
Color space                 : YUV
Chroma subsampling          : 4:2:0
Bit depth                   : 8 bits
Scan type                   : Progressive
Bits/(Pixel*Frame)          : 0.102
Stream size                 : 1.66 GiB (85%)
Language                    : English
Default                     : Yes
Forced                      : No
Color primaries             : BT.709
Transfer characteristics    : BT.709
Matrix coefficients         : BT.709
Color range                 : Limited
Audio #1
ID                          : 2
Format                      : AC-3
Format/Info                 : Audio Coding 3
Mode extension              : CM (complete main)
Format settings, Endianness : Big
Codec ID                    : A_AC3
Duration                    : 46mn 55s
Bit rate mode               : Constant
Bit rate                    : 384 Kbps
Channel(s)                  : 6 channels
Channel positions           : Front: L C R, Side: L R, LFE
Sampling rate               : 48.0 KHz
Bit depth                   : 16 bits
Compression mode            : Lossy
Stream size                 : 129 MiB (6%)
Language                    : Russian
Default                     : Yes
Forced                      : No
Audio #2
ID                          : 3
Format                      : AC-3
Format/Info                 : Audio Coding 3
Mode extension              : CM (complete main)
Format settings, Endianness : Big
Codec ID                    : A_AC3
Duration                    : 46mn 55s
Bit rate mode               : Constant
Bit rate                    : 384 Kbps
Channel(s)                  : 6 channels
Channel positions           : Front: L C R, Side: L R, LFE
Sampling rate               : 48.0 KHz
Bit depth                   : 16 bits
Compression mode            : Lossy
Stream size                 : 129 MiB (6%)
Language                    : English
Default                     : No
Forced                      : No
Text #1
ID                          : 4
Format                      : UTF-8
Codec ID                    : S_TEXT/UTF8
Codec ID/Info               : UTF-8 Plain Text
Language                    : Russian
Default                     : No
Forced                      : No
Text #2
ID                          : 5
Format                      : UTF-8
Codec ID                    : S_TEXT/UTF8
Codec ID/Info               : UTF-8 Plain Text
Language                    : English
Default                     : No
Forced                      : No
Download / Скачать

Хотите скачать бесплатно? Зарегистрируйтесь на сайте (ссылка на регистрацию). Pirat.ca - самый быстрый торрент трекер в рунете!

Как скачивать  ·   Что такое торрент  ·   Рейтинг и ограничения



Последний раз редактировалось: TERMOS (2016-04-22 14:44), всего редактировалось 5 раз(а)

TERMOS ®

Легенда

12068

Пост 20-Мар-2016 20:07 (спустя 5 минут)

[Q] 

Lostrator похоже забил на сериал. Nez раздаёт вариант от Амедии (ненавижу их логотип). Ну вот как-то так...

_________________
[Профиль]  [ЛС] 

Пост 20-Мар-2016 21:45 (спустя 1 час 38 минут)

Топик был перенесен из форума Зарубежные сериалы (Трюм) в форум Зарубежные сериалы
Андря
 

TERMOS ®

Легенда

12068

Пост 20-Мар-2016 21:50 (спустя 1 час 43 минуты)

[Q] 

Андря, сериал-то не закончен. bt

_________________
[Профиль]  [ЛС] 

Андря

8419

Пост 20-Мар-2016 23:20 (спустя 1 час 29 минут)

[Q] 

TERMOS, модертор не слажал, не ту кнопочку нажал )))

_________________
Като Тешекика
[Профиль]  [ЛС] 

Пост 20-Мар-2016 23:21 (спустя 1 минута)

Топик был перенесен из форума Зарубежные сериалы в форум Сериалы в эфире
Андря
 

TERMOS ®

Легенда

12068

Пост 20-Мар-2016 23:48 (спустя 28 минут)

[Q] 

Андря, вау! Стихи на все случаи в жизни?)))

_________________
[Профиль]  [ЛС] 

TERMOS ®

Легенда

12068

Пост 25-Мар-2016 18:43 (спустя 4 дня)

[Q] 

Добавлена 6-я серия. Обновите торрент-файл!

_________________
[Профиль]  [ЛС] 

TERMOS ®

Легенда

12068

Пост 02-Апр-2016 00:19 (спустя 7 дней)

[Q] 

Добавлена 7-я серия. Обновите торрент-файл!

_________________
[Профиль]  [ЛС] 

TERMOS ®

Легенда

12068

Пост 09-Апр-2016 10:21 (спустя 7 дней)

[Q] 

Добавлена 8-я серия. Обновите торрент-файл!

_________________
[Профиль]  [ЛС] 

TERMOS ®

Легенда

12068

Пост 16-Апр-2016 21:28 (спустя 7 дней)

[Q] 

Пропер на 1-8 серии + 9-я серия. Обновите торрент-файл!

_________________
[Профиль]  [ЛС] 

TERMOS ®

Легенда

12068

Пост 22-Апр-2016 14:45 (спустя 5 дней)

[Q] 

Добавлена 10-я серия. Финал сезона! Обновите торрент-файл!

_________________
[Профиль]  [ЛС] 
Показать сообщения:    
Ответить на тему

Текущее время: Сегодня 08:09

Часовой пояс: GMT + 4



Вы не можете начинать темы
Вы не можете отвечать на сообщения
Вы не можете редактировать свои сообщения
Вы не можете удалять свои сообщения
Вы не можете голосовать в опросах
Вы не можете прикреплять файлы к сообщениям
Вы не можете скачивать файлы

▼ Вниз