ML
     
  Уважаемый Гость!
Вы можете поддержать проект и зарегистрироваться у наших партнеров - онлайн-стратегия MyLands. При регистрации в игре Вы получите код, который сможете активировать после регистрации на pirat.ca и получить 1000 дублонов.

Ваш код:
fcd618d94adc1456bccbde5047c9cd0930e4ae4d
 
     

Сорвиголова / Daredevil / Сезон: 2 / Серии: 13 из 13 (Фил Абрахам / Phil Abraham ...) [2016 г., боевик, драма, криминал, ..., WEB-Rip] MVO (LostFilm) [Финал сезона]

Ответить на тему
 
Автор
Сообщение

Пост 21-Мар-2016 22:39

[Q] 

kugesan

-Сорвиголова / Daredevil «The man without fear»-- Страна: США / ABC Television Studio, Marvel Entertainment, Walt Disney Company
Жанр: боевик, драма, криминал, ...
Год выпуска: 2016 г.-Мировая премьера: 2 апреля 2015, ...-Озвучка: Студия
Перевод: Многоголосый закадровый, профессиональный-Режиссер: Фил Абрахам / Phil Abraham, Стивен С. ДеНайт / Steven S. DeKnight, Фэррен Блэкберн / Farren Blackburn, ...-В ролях: Чарли Кокс (Daredevil), Дебора Энн Уолл (Karen Page), Элден Хенсон (Foggy Nelson), Розарио Доусон (Claire Temple), Винсент Д’Онофрио (Wilson Fisk), Айелет Зурер (Vanessa Marianna), Боб Гантон (Leland Owlsley), Тоби Мур (Wesley), Вонди Куртис-Холл (Ben Urich), Роб Морган (Turk), Джеффри Кантор (Ellison), ...-Описание:
Он живёт в мире вечной ночи, но эта темнота заполнена звуками и запахами, её можно попробовать на вкус и потрогать руками. Адвокат Мэтт Мёрдок слеп, но остальные органы чувств у него работают, как у супермена. Днём Мёрдок защищает униженных и оскорблённых в зале суда, а ночью превращается в супергероя в маске, восстанавливая справедливость на улицах города самыми радикальными методами.-Сезон: 1
Серии: 13 из 13 серий
Продолжительность: ~ 00:48:00 мин серия-
Качество видео: WEB-Rip
Контейнер: AVI
Видео кодек: XviD
Аудио кодек: MP3
Видео: MPEG-4 Visual at 1365 Кбит/сек: 720 x 400 (1.800) at 23.976 fps: 0.20 Бит/Пиксели
Аудио Rus: MPEG Audio at 192 Кбит/сек, 2 канала, 48,0 КГц |LostFilm|
Cубтитры: отсутствуют
- -
  • Бах (Bang)
  • Псы на перестрелке (Dogs to a Gunfight)
  • Прелести Нью-Йорка (New York's Finest)
  • Вот и кончилась игра (Penny and Dime)
  • Кинбаку (Kinbaku)
  • Одни сожаления (Regrets Only)
  • Всегда верен (Semper Fidelis)
  • Виновен на все сто (Guilty as Sin)
  • Семь минут в раю (Seven Minutes in Heaven)
  • Человек в клетке (The Man in The Box)
  • 0.380 (0.380)
  • Тьма в конце тоннеля (The Dark at the End of the Tunnel)
  • Холодный день в Адской Кухне (A Cold Day in Hell's Kitchen)
-
Общее
Полное имя : E:\_Сериалы\_Сериалы\Сорвиголова\Marvels.Daredevil.S02.rus.LostFilm.TV\Marvels.Daredevil.S02E01.rus.LostFilm.TV.avi
Формат : AVI
Формат/Информация : Audio Video Interleave
Размер файла : 540 Мбайт
Продолжительность : 48 м.
Режим общего битрейта : Переменный
Общий поток : 1566 Кбит/сек
Программа кодирования : Nandub v1.0rc2
Библиотека кодирования : Nandub build 1853/release
Видео
Идентификатор : 0
Формат : MPEG-4 Visual
Профиль формата : Advanced [email protected]
Параметр BVOP формата : Нет
Параметр QPel формата : Нет
Параметр GMC формата : Без точки перехода
Параметр матрицы формата : Default (H.263)
Идентификатор кодека : XVID
Идентификатор кодека/Подсказка : XviD
Продолжительность : 48 м.
Битрейт : 1365 Кбит/сек
Ширина : 720 пикселей
Высота : 400 пикселей
Соотношение сторон : 16:9
Частота кадров : 23,976 (23976/1000) кадра/сек
Цветовое пространство : YUV
Субдискретизация насыщенности : 4:2:0
Битовая глубина : 8 бит
Тип развёртки : Прогрессивная
Метод сжатия : С потерями
Бит/(Пиксели*Кадры) : 0.198
Размер потока : 471 Мбайт (87%)
Библиотека кодирования : XviD 1.2.1 (UTC 2008-12-04)
Аудио
Идентификатор : 1
Формат : MPEG Audio
Версия формата : Version 1
Профиль формата : Layer 3
Режим : Joint stereo
Расширение режима : MS Stereo
Идентификатор кодека : 55
Идентификатор кодека/Подсказка : MP3
Продолжительность : 48 м.
Вид битрейта : Переменный
Битрейт : 192 Кбит/сек
Каналы : 2 канала
Частота : 48,0 КГц
Метод сжатия : С потерями
Размер потока : 64,9 Мбайт (12%)
Выравнивание : Соединение по промежуткам
Продолжительность промежутка : 24 мс. (0,58 видеокадр)
Время предзагрузки промежутка : 493 мс.
Библиотека кодирования : LAME3.97b
Настройки программы : -m j -V 4 -q 3 -lowpass 18.6 --abr 192
-
-Скриншоты:
-
-
Раздача ведётся путём добавления новых серий; при каждом добавлении создаётся новый торрент.
Чтобы начать докачку новой серии, пользователям необходимо сделать следующее:
1. остановить скачивание,
2. удалить старый торрент у себя из клиента (старые серии удалять не надо),
3. скачать новый торрент и запустить его у себя в клиенте вместо старого, при этом указать клиенту путь в старую папку, куда и должно происходить скачивание новых серий.
Ваш клиент при этом должен произвести хеширование (проверку) старой папки (если не производит сам - помогите ему сделать это), и будет докачивать только те серии которых у вас ещё нет. Старые серии при этом не удаляются, а продолжают раздаваться!
Eсли вы уже удалили старые серии, то предотвратить повторную закачку старых серий можно, отжав галочку в соответствующих местах при запуске нового торрента. По возможности, желательно не удалять старые серии как можно дольше, чтобы релизёр не столько продолжал раздавать старые серии, а смог сконцентрироваться на новых.
Совет для тех, кто не хочет ждать перехеширования:
Создайте ещё одну папку рядом с папкой сериала (рядом, а не в ней!!!). Каждую новую серию после удачной загрузки копируйте в новую папку так чтобы ваша основная папка всегда была пуста. Когда ваш новый торрент предложит вам закачать все файлы, выберете только последнюю. Для сидирования же укажите адрес новой папки.
Как закачать отдельный файл из торрента или докачать ранее пропущенные файлы торрента!
-
1. Открыть торрент
2. Снять галки с тех файлов торрента, которые мы не хотим закачивать. Оставляем только на нужных нам файлах (файле).
3. Нажать О.К.
В клиенте utorrent
Инструкция
1) Открыть торрент

2) Снять галки с тех файлов торрента, которые мы не хотим закачивать:
* либо вручную, снимая с каждого файла галку( скрин №1)
* либо, нажав кнопку "Снять метки (Select None)", сняв сразу со всех файлов(скрин №2)
№1

№2

Оставляем только на нужных нам файлах (файле).

3)Нажать О.К
-Добавлена тринадцатая, заключительная, серия второго сезона-
Download / Скачать

Хотите скачать бесплатно? Зарегистрируйтесь на сайте (ссылка на регистрацию). Pirat.ca - самый быстрый торрент трекер в рунете!

Как скачивать  ·   Что такое торрент  ·   Рейтинг и ограничения



Последний раз редактировалось: kugesan (2016-05-03 18:09), всего редактировалось 12 раз(а)

Vade7Mecum

Морской Волк

Пост 03-Апр-2016 23:35 (спустя 13 дней)

[Q] 

скорости бы!
Скорость как у черепахи
[Профиль]  [ЛС] 

kugesan ®

56710

Пост 04-Апр-2016 00:30 (спустя 54 минуты)

[Q] 

Меня это тоже интересует... Почему скачавших уже трое, а раздаю я один!?... странно.

_________________

В мире две бесконечности: вселенная и человеческая глупость - Альберт Эйнштен
«Можно вытащить человека из грязи, но нельзя вытащить грязь из человека»!
[Профиль]  [ЛС] 

kugesan ®

56710

Пост 03-Май-2016 18:09 (спустя 29 дней)

[Q] 

-Добавлена тринадцатая, заключительная, серия второго сезона-

_________________

В мире две бесконечности: вселенная и человеческая глупость - Альберт Эйнштен
«Можно вытащить человека из грязи, но нельзя вытащить грязь из человека»!
[Профиль]  [ЛС] 

maaximkaa

Корсар

Пост 03-Май-2016 18:29 (спустя 19 минут)

[Q] 

я с лостов качаю, хотя чет поднадоел этот сериал
[Профиль]  [ЛС] 
Показать сообщения:    
Ответить на тему

Текущее время: Сегодня 12:51

Часовой пояс: GMT + 4



Вы не можете начинать темы
Вы не можете отвечать на сообщения
Вы не можете редактировать свои сообщения
Вы не можете удалять свои сообщения
Вы не можете голосовать в опросах
Вы не можете прикреплять файлы к сообщениям
Вы не можете скачивать файлы

▼ Вниз