ML
     
  Уважаемый Гость!
Вы можете поддержать проект и зарегистрироваться у наших партнеров - онлайн-стратегия MyLands. При регистрации в игре Вы получите код, который сможете активировать после регистрации на pirat.ca и получить 1000 дублонов.

Ваш код:
4fbd9898b6f10799a3e8edf60f31febd2bc15453
 
     

Чёрная Метка / Срочное Уведомление / Burn Notice / Сезон: 7-й / Серии: 1-13 из 13 (Стивен Серджик / Stephen Surjik,...) [2013 г., боевик, триллер, драма, криминал, детектив, WEB-DL] VO [+ Original (Eng)] (andrejshapal / Notabenoid)

Ответить на тему
 
Автор
Сообщение

Пост 23-Мар-2016 00:04

[Q] 

somik

Легенда

-Чёрная Метка / Срочное Уведомление / Burn Notice-- Производство: США, Flying Glass of Milk Productions, Fox Television Studios, Fuse Entertainment, Keslow Cameras
Жанр: боевик, триллер, драма, криминал, детектив
Год выпуска: 2013 г.
Продолжительность: 00:43:00
Мировая премьера: 6 июня 2013
Перевод: Любительский (одноголосый, закадровый) [andrejshapal / Notabenoid]
Оригинальный аудиопоток: английский
Режиссер: Стивен Серджик / Stephen Surjik,...-В ролях: Джеффри Донован, Габриель Анвар, Брюс Кэмпбелл, Шэрон Глесс, Коби Белл, Пол Ти, Сет Петерсон, Лорен Стемайл, Джек Коулман, Марк Маколей-Описание: «Чёрная метка» - это термин, используемый американскими спецслужбами. Он означает, что определённый агент или источник информации стал ненадёжным. Стиль сериала — рассказ от лица бывшего агента спецслужб Майкла Вестена. Сбежав с операции в Нигерии, сорванной внезапным объявлением о ненадёжности Вестена, он обнаруживает себя в своём родном городе Майами, Флорида. Рядом с собой Майкл находит свою бывшую подругу, но все его связные из спецслужб отказываются иметь с ним дело. Он находится под постоянным наблюдением "федералов", а его личные банковские счета заморожены правительством. Единственное, что он смог узнать от своего главного связного в правительстве, — какая-то важная «шишка» хочет, чтобы он остался (возможно, на всю жизнь) в Майами. Если он только попробует уехать, на ноги будет поднята вся полиция страны, чтобы взять его. Вестена одолевает желание узнать, кто его «спалил» и за что. Он начинает работать как частный детектив без лицензии и наёмный шпион для того в городе, кто может оплатить его личное расследование своего дела.-
Качество видео: WEB-DL
Контейнер: AVI
Видео кодек: XviD
Аудио кодек: MP3
Видео: Video: 720x400 (1.80:1), 23.976 fps, XviD MPEG-4 ~1494 kbps avg, 0.22 bit/pixel
Аудио: Audio #1: 48 kHz, MPEG Layer 3, 2 ch, ~128.00 kbps avg
Аудио #2: Audio #2: 48 kHz, MPEG Layer 3, 2 ch, ~128.00 kbps avg
Cубтитры: отсутствуют
S7, Ep1
6 Jun. 2013
New Deal
Michael must deal with a terrorist who recruits him to steal hardware from the Department of Defense. Sam and Jesse discover Michael's life might be in danger.
S7, Ep2
13 Jun. 2013
Forget Me Not
Michael returns to Miami but can't contact his mother or his friends in order to maintain his cover.
S7, Ep3
20 Jun. 2013
Down Range
Sam and Jesse head to the Dominican Republic to help with Michael's undercover mission. Fiona must help Maddie take care of a bookie attempting to collect on a debt.
S7, Ep4
27 Jun. 2013
Brothers in Arms
In order to help Michael free a prisoner trapped in Cuba by the Russians, Fiona and Maddie must frame a corrupt bureaucrat.
S7, Ep5
11 Jul. 2013
Exit Plan
Strong must convince Fiona to help Michael, who must escape from Cuba with the help of a former Russian spy in Burke's organization.
S7, Ep6
18 Jul. 2013
All or Nothing
Michael is conflicted when he asks Fiona to help him steal intelligence data for Sonya. Sam and Jesse help Barry track down an old girlfriend.
S7, Ep7
25 Jul. 2013
Psychological Warfare
Michael postulates and is painstakingly questioned by the very organization he is trying to take down and could reveal damaging secrets when he is drugged.
S7, Ep8
1 Aug. 2013
Nature of the Beast
While Michael is tasked by the organization he infiltrated to take down a drug smuggler, Fiona, Jesse, and Strong find out more about its leader, James.
S7, Ep9
8 Aug. 2013
Bitter Pill
Maddie suspects she is being followed and takes matters into her own hands. The team tries to help a Middle Eastern diplomat when the individual is poisoned.
S7, Ep10
15 Aug. 2013
Things Unseen
A figure from Michael's past could reveal his cover in a crucial mission. Fiona's boyfriend is targeted by a gang, which places Sam and Jesse in the crossfire.
S7, Ep11
22 Aug. 2013
Tipping Point
A conflicted Michael goes to Mexico on a mission with Sonya, not knowing what ruthless mercenaries Strong has hired to capture James.
S7, Ep12
5 Sep. 2013
Sea Change
Fiona and Jesse fear for Michael's life when he reveals his true identity to James.
S7, Ep13
12 Sep. 2013
Reckoning
Michael must win back the trust of everyone he betrayed as James becomes obsessed with ending his life.
Эмми, 2010 год - номинация: Лучшая женская роль второго плана в драматическом сериале (Шэрон Глесс)
Премия Гильдии актеров, 2011 год - номинация: Лучший каскадерский состав в телевизионном сериале
Сериал Черная метка — вполне ладно скроенный шпионский боевик, без особых изысков, но добротный и не вызывающий отрицательных эмоций. Возможно, за это следует благодарить удачную игру актеров, пейзажные съемки и восхитительные окрестности Майями, но фильм получился более чем удачным, к тому же, и со своеобразным чувством юмора. Конечно, временами сюжет напоминает что-то уже виденное и никаких неожиданностей по ходу не происходит, то есть каждый шаг можно просчитать и всегда знаешь, что будет дальше. Но с одной стороны, это позволяет ощущать себя очень умным, а с другой — не портить впечатление от фильма.
Формат : AVI
Формат/Информация : Audio Video Interleave
Размер файла : 536 Мбайт
Продолжительность : 42 м.
Общий поток : 1765 Кбит/сек
Название фильма : Чёрная метка (7 сезон: 1 серия) | Новая сделка / New Deal | andrejshapal.com
Программа кодирования : VirtualDubMod 1.5.10.2 (build 2540/release)
Библиотека кодирования : VirtualDubMod build 2540/release
Видео
Идентификатор : 0
Формат : MPEG-4 Visual
Профиль формата : Advanced [email protected]
Параметр BVOP формата : 2
Параметр QPel формата : Нет
Параметр GMC формата : Без точки перехода
Параметр матрицы формата : Default (MPEG)
Идентификатор кодека : XVID
Идентификатор кодека/Подсказка : XviD
Продолжительность : 42 м.
Битрейт : 1495 Кбит/сек
Ширина : 720 пикселей
Высота : 400 пикселей
Соотношение сторон : 16:9
Соотношение сторон в оригинале : 16:9
Частота кадров : 23,976 (23976/1000) кадра/сек
Цветовое пространство : YUV
Субдискретизация насыщенности : 4:2:0
Битовая глубина : 8 бит
Тип развёртки : Прогрессивная
Метод сжатия : С потерями
Бит/(Пиксели*Кадры) : 0.216
Размер потока : 454 Мбайт (85%)
Библиотека кодирования : XviD 64
Аудио #1
Идентификатор : 1
Формат : MPEG Audio
Версия формата : Version 1
Профиль формата : Layer 3
Режим : Joint stereo
Расширение режима : MS Stereo
Идентификатор кодека : 55
Идентификатор кодека/Подсказка : MP3
Продолжительность : 42 м.
Вид битрейта : Постоянный
Битрейт : 128 Кбит/сек
Каналы : 2 канала
Частота : 48,0 КГц
Метод сжатия : С потерями
Размер потока : 38,9 Мбайт (7%)
Выравнивание : Соединение по промежуткам
Продолжительность промежутка : 42 мс. (1,00 видеокадр)
Время предзагрузки промежутка : 504 мс.
Аудио #2
Идентификатор : 2
Формат : MPEG Audio
Версия формата : Version 1
Профиль формата : Layer 3
Режим : Joint stereo
Расширение режима : MS Stereo
Идентификатор кодека : 55
Идентификатор кодека/Подсказка : MP3
Продолжительность : 42 м.
Вид битрейта : Постоянный
Битрейт : 128 Кбит/сек
Каналы : 2 канала
Частота : 48,0 КГц
Метод сжатия : С потерями
Размер потока : 38,9 Мбайт (7%)
Выравнивание : Разделение по промежуткам
Продолжительность промежутка : 42 мс. (1,00 видеокадр)
Время предзагрузки промежутка : 500 мс.
Download / Скачать

Хотите скачать бесплатно? Зарегистрируйтесь на сайте (ссылка на регистрацию). Pirat.ca - самый быстрый торрент трекер в рунете!

Как скачивать  ·   Что такое торрент  ·   Рейтинг и ограничения

Пост 23-Мар-2016 00:42 (спустя 37 минут)

Топик был перенесен из форума Зарубежные сериалы (Трюм) в форум Зарубежные сериалы
Андря
 

somik ®

Легенда

26801

Пост 23-Мар-2016 00:58 (спустя 53 минуты)

[Q] 

Благодарю Андрю, заканчиваем проект.

_________________
Всё когда-нибудь уже было... В интернете!
[Профиль]  [ЛС] 
Показать сообщения:    
Ответить на тему

Текущее время: Сегодня 19:58

Часовой пояс: GMT + 4



Вы не можете начинать темы
Вы не можете отвечать на сообщения
Вы не можете редактировать свои сообщения
Вы не можете удалять свои сообщения
Вы не можете голосовать в опросах
Вы не можете прикреплять файлы к сообщениям
Вы не можете скачивать файлы

▼ Вниз