ML
     
  Уважаемый Гость!
Вы можете поддержать проект и зарегистрироваться у наших партнеров - онлайн-стратегия MyLands. При регистрации в игре Вы получите код, который сможете активировать после регистрации на pirat.ca и получить 1000 дублонов.

Ваш код:
500cb7bd8d2cec9a8aba647a87ce41c4b76f06bd
 
     

Игра престолов / Game of Thrones / Сезон: 5 / Серии: 1-10 (10) (Алан Тейлор / Alan Taylor, ...) [2015 г., фэнтези, драма, приключения, BDRip, 1080p] DUB + MVO (LostFilm, FOX, AlexFilm, UATEAM) + Original (Eng) + Sub (Rus, Eng)

Ответить на тему
 
Автор
Сообщение

Пост 25-Мар-2016 00:13

[Q] 

TERMOS

Легенда

-Игра престолов / Game of Thrones
«Победа или смерть»
(5 сезон)
-- Производство: США, Великобритания
Жанр: фэнтези, драма, приключения
Год выпуска: 2015 г.
Продолжительность: 10x ~00:50:00
Перевод: Профессиональный (многоголосый, закадровый) [LostFilm]
Перевод 2: Профессиональный (многоголосый, закадровый) [FOX]
Перевод 3: Профессиональный (полное дублирование) [Amedia]
Перевод 4: Профессиональный (многоголосый, закадровый) [AlexFilm]
Перевод 5: Профессиональный (многоголосый, закадровый) [UATEAM]
Оригинальный аудиопоток: английский
Режиссер: Алан Тейлор / Alan Taylor, Алекс Грейвз / Алекс Грейвз, Даниэль Минахан / Daniel Minahan ...-В ролях: Лина Хиди, Питер Динклэйдж, Мишель Фэйрли, Эмилия Кларк, Кит Харингтон, Шон Бин, Николай Костер-Вальдау, Айэйн Глен, Марк Эдди, Эйден Гиллен, ...-Описание: Главный эпос современности. Фэнтези, которое говорит о человеческих страстях, природе власти, механизмах политики и устройстве нашего мира точнее и лучше, чем любое документальное кино. Сказка, от которой невозможно оторваться.     Самый популярный и дорогостоящий сериал в мире.
Война умыла кровью семь королевств. Победители ликуют, а проигравшие оплакивают близких и готовят план мести. Жестокой и коварной мести, которая страшнее даже самых свирепых драконов.
- - -Качество видео: BDRip
Источник: Game of Thrones S05 1080p Blu-ray AVC TrueHD 7.1-jimsong
Контейнер: MKV
Стандарт разрешения: 1080p
Видео кодек: H.264/AVC
Аудио кодек: AC3
Видео: 1920x1080 at 23.976 fps, ~14.0 Mbps avg
Аудио: Russian: 48 kHz, AC3, 3/2 (L,C,R,l,r) + LFE ch, ~640.00 kbps avg |Многоголосый закадровый, LostFilm|
Аудио #2: Russian: 48 kHz, AC3, 3/2 (L,C,R,l,r) + LFE ch, ~640.00 kbps avg |Многоголосый закадровый, FOX|
Аудио #3: Russian: 48 kHz, AC3, 3/2 (L,C,R,l,r) + LFE ch, ~640.00 kbps avg |Дубляж, Amedia|
Аудио #4: Russian: 48 kHz, AC3, 3/2 (L,C,R,l,r) + LFE ch, ~384.00 kbps avg |Многоголосый закадровый, AlexFilm|
Аудио #5: Ukrainian: 48 kHz, AC3, 3/2 (L,C,R,l,r) + LFE ch, ~384.00 kbps avg |Многоголосый закадровый, UATEAM|
Аудио #6: English: 48 kHz, AC3, 3/2 (L,C,R,l,r) + LFE ch, ~640.00 kbps avg
Аудио #7: English: 48 kHz, AC3, 3/2 (L,C,R,l,r) + LFE ch, ~448.00 kbps avg |Commentary|
Cубтитры: Russian (Forced), English (Forced), Russian (Amedia), Russian (7kingdoms.ru), English
• Сериал снят по мотивам серии романов Джорджа Р.Р. Мартина
«Песнь Льда и Огня» (A Song of Ice and Fire, 1996 - н.в.).
• Съёмки пилотного эпизода заняли почти месяц с 24 октября 2009 года по 19 ноября 2009 года.
• Вскоре после окончания съёмок пилотной серии стало известно, что актрису Дженнифер Или (роль Кейтилин Старк) заменит Мишель Фэйрли, кроме того, исполнительницу одной из ключевых ролей Дейенерис Таргариен молодую актрису Тэмзин Мёрчант также заменили Эмилией Кларк. Это потребовало повторной съемки части сцен, включая пролог, при этом из-за накладок в расписании не все актеры пилотного эпизода смогли вернуться к пересъемкам, что потребовало замену актеров для еще трех персонажей. Режиссёр первого варианта пилотной серии сериала, Томас Маккарти, также не смог вернуться к повторным съемкам и был заменен, его имя не упоминается в титрах.
• Основные съемки первого сезона проходили в студии Зал Краски (Paint Hall Studio) в Белфасте, Северная Ирландия, а также на Мальте (вместо планируемого первоначально Марокко). На Мальте съемки проходили в городах Мдина и Валлетта.
• Эддарда Старка могли сыграть Лиам Нисон, Джерард Батлер, Вигго Мортенсен и Сэм Нил, но Дэвид Бениофф, Д.Б. Уайсс и Джордж Р.Р. Мартин сошлись на том, что Владыку Севера должен сыграть Шон Бин.
• На роль Давоса Сиворта рассматривались Тим Рот и Дэвид Тьюлис.
• Роль Кэйтилин Старк могла сыграть Джиллиан Андерсон.
• Туннель, через который выезжают разведчики Ночного Дозора, на самом деле прорыт в склоне холма в каменоломне, где снимался Черный Замок. Стены у него из цемента.
• Для сцены с обедом в трапезной Черного Замка сварили настолько неприятного вида кашу, что актер, игравший Пипа, отказался ее есть, а актер, игравший Гренна, в кадре пытается ее проглотить и не может.
• Сцена, в которой Серсея разговаривает с Недом в башне Десницы, была отснята на съемках сериала самой первой.
• В цикле Джорджа Р.Р. Мартина «Песнь Льда и Огня» Арья Старк — левша. Правша Мэйси Уильямс, исполняющая роль Арьи в экранизации, ради достоверности образа научилась полноценно пользоваться левой рукой.
01: The Wars to Come / Грядущие войны
02: The House of Black and White / Черно-белый дом
03: High Sparrow / Его Воробейшество
04: The Sons of the Harpy / Сыны Гарпии
05: Kill the Boy / Убей мальчишку
06: Unbowed, Unbent, Unbroken / Непокорны, несгибаемы, не сломлены
07: The Gift / Дар
08: Hardhome / Суровый дом
09: The Dance of Dragons / Танец драконов
10: Mother's Mercy / Милосердие матери
Код:
Complete name               : W:\Uploads\Pirat.Ca\Game Of Thrones - Season 05 (2015)[1080p.BDRip]\Game.of.Thrones.S05E01.The.Wars.to.Come.1080p.BluRay.Rus.Ukr.Eng.HDCLUB.mkv
Format                      : Matroska
Format version              : Version 4 / Version 2
File size                   : 6.92 GiB
Duration                    : 52mn 11s
Overall bit rate            : 19.0 Mbps
Movie name                  : Game of Thrones 5x01 (2015)
Encoded date                : UTC 2016-03-20 06:28:17
Writing application         : mkvmerge v8.7.0 ('All of the above') 64bit
Writing library             : libebml v1.3.3 + libmatroska v1.4.4
DURATION                    : 00:48:46.285000000
NUMBER_OF_FRAMES            : 616
NUMBER_OF_BYTES             : 33375
_STATISTICS_WRITING_APP     : mkvmerge v8.7.0 ('All of the above') 64bit
_STATISTICS_WRITING_DATE_UT : 2016-03-20 06:28:17
_STATISTICS_TAGS            : BPS DURATION NUMBER_OF_FRAMES NUMBER_OF_BYTES
Video
ID                          : 1
Format                      : AVC
Format/Info                 : Advanced Video Codec
Format profile              : [email protected]
Format settings, CABAC      : Yes
Format settings, ReFrames   : 4 frames
Codec ID                    : V_MPEG4/ISO/AVC
Duration                    : 52mn 11s
Bit rate                    : 14.8 Mbps
Width                       : 1 920 pixels
Height                      : 1 080 pixels
Display aspect ratio        : 16:9
Frame rate mode             : Constant
Frame rate                  : 23.976 fps
Color space                 : YUV
Chroma subsampling          : 4:2:0
Bit depth                   : 8 bits
Scan type                   : Progressive
Bits/(Pixel*Frame)          : 0.298
Stream size                 : 5.41 GiB (78%)
Title                       : Game of Thrones 5x01: The Wars to Come / Грядущие войны
Writing library             : x264 core 146 r0+2586 e393126 t_mod_Custom [[email protected] X86_64]
Encoding settings           : cabac=1 / ref=4 / deblock=1:-3:-3 / analyse=0x3:0x133 / me=umh / subme=10 / psy=1 / fade_compensate=0.00 / psy_rd=1.00:0.00 / mixed_ref=1 / me_range=24 / chroma_me=1 / trellis=2 / 8x8dct=1 / cqm=0 / deadzone=21,11 / fast_pskip=0 / chroma_qp_offset=-2 / threads=12 / lookahead_threads=2 / sliced_threads=0 / nr=0 / decimate=0 / interlaced=0 / bluray_compat=0 / constrained_intra=0 / fgo=0 / bframes=9 / b_pyramid=2 / b_adapt=2 / b_bias=0 / direct=3 / weightb=1 / open_gop=0 / weightp=2 / keyint=250 / keyint_min=23 / scenecut=40 / intra_refresh=0 / rc_lookahead=60 / rc=crf / mbtree=0 / crf=17.8000 / qcomp=0.60 / qpmin=0:0:0 / qpmax=69:69:69 / qpstep=4 / vbv_maxrate=62500 / vbv_bufsize=78125 / crf_max=0.0 / nal_hrd=none / filler=0 / ip_ratio=1.30 / pb_ratio=1.20 / aq=3:0.80 / aq-sensitivity=10.00 / aq-factor=1.00:1.00:1.00 / aq2=0 / aq3=0
Language                    : English
Default                     : Yes
Forced                      : No
Matrix coefficients         : BT.709
Color range                 : Limited
DURATION                    : 00:52:11.545000000
NUMBER_OF_FRAMES            : 75082
NUMBER_OF_BYTES             : 5954484132
_STATISTICS_WRITING_APP     : mkvmerge v8.7.0 ('All of the above') 64bit
_STATISTICS_WRITING_DATE_UT : 2016-03-20 06:28:17
_STATISTICS_TAGS            : BPS DURATION NUMBER_OF_FRAMES NUMBER_OF_BYTES
Audio #1
ID                          : 2
Format                      : AC-3
Format/Info                 : Audio Coding 3
Mode extension              : CM (complete main)
Format settings, Endianness : Big
Codec ID                    : A_AC3
Duration                    : 52mn 11s
Bit rate mode               : Constant
Bit rate                    : 640 Kbps
Channel(s)                  : 6 channels
Channel positions           : Front: L C R, Side: L R, LFE
Sampling rate               : 48.0 KHz
Bit depth                   : 16 bits
Compression mode            : Lossy
Stream size                 : 239 MiB (3%)
Title                       : LostFilm
Language                    : Russian
Default                     : Yes
Forced                      : No
Audio #2
ID                          : 3
Format                      : AC-3
Format/Info                 : Audio Coding 3
Mode extension              : CM (complete main)
Format settings, Endianness : Big
Codec ID                    : A_AC3
Duration                    : 52mn 11s
Bit rate mode               : Constant
Bit rate                    : 640 Kbps
Channel(s)                  : 6 channels
Channel positions           : Front: L C R, Side: L R, LFE
Sampling rate               : 48.0 KHz
Bit depth                   : 16 bits
Compression mode            : Lossy
Stream size                 : 239 MiB (3%)
Title                       : FOX
Language                    : Russian
Default                     : No
Forced                      : No
Audio #3
ID                          : 4
Format                      : AC-3
Format/Info                 : Audio Coding 3
Mode extension              : CM (complete main)
Format settings, Endianness : Big
Codec ID                    : A_AC3
Duration                    : 52mn 11s
Bit rate mode               : Constant
Bit rate                    : 640 Kbps
Channel(s)                  : 6 channels
Channel positions           : Front: L C R, Side: L R, LFE
Sampling rate               : 48.0 KHz
Bit depth                   : 16 bits
Compression mode            : Lossy
Stream size                 : 239 MiB (3%)
Title                       : Amedia
Language                    : Russian
Default                     : No
Forced                      : No
Audio #4
ID                          : 5
Format                      : AC-3
Format/Info                 : Audio Coding 3
Mode extension              : CM (complete main)
Format settings, Endianness : Big
Codec ID                    : A_AC3
Duration                    : 52mn 11s
Bit rate mode               : Constant
Bit rate                    : 384 Kbps
Channel(s)                  : 6 channels
Channel positions           : Front: L C R, Side: L R, LFE
Sampling rate               : 48.0 KHz
Bit depth                   : 16 bits
Compression mode            : Lossy
Stream size                 : 143 MiB (2%)
Title                       : AlexFilm
Language                    : Russian
Default                     : No
Forced                      : No
Audio #5
ID                          : 6
Format                      : AC-3
Format/Info                 : Audio Coding 3
Mode extension              : CM (complete main)
Format settings, Endianness : Big
Codec ID                    : A_AC3
Duration                    : 52mn 11s
Bit rate mode               : Constant
Bit rate                    : 384 Kbps
Channel(s)                  : 2 channels
Channel positions           : Front: L R
Sampling rate               : 48.0 KHz
Bit depth                   : 16 bits
Compression mode            : Lossy
Stream size                 : 143 MiB (2%)
Title                       : Omikron
Language                    : Ukrainian
Default                     : No
Forced                      : No
Audio #6
ID                          : 7
Format                      : AC-3
Format/Info                 : Audio Coding 3
Mode extension              : CM (complete main)
Format settings, Endianness : Big
Codec ID                    : A_AC3
Duration                    : 52mn 11s
Bit rate mode               : Constant
Bit rate                    : 640 Kbps
Channel(s)                  : 6 channels
Channel positions           : Front: L C R, Side: L R, LFE
Sampling rate               : 48.0 KHz
Bit depth                   : 16 bits
Compression mode            : Lossy
Stream size                 : 239 MiB (3%)
Language                    : English
Default                     : No
Forced                      : No
Audio #7
ID                          : 8
Format                      : AC-3
Format/Info                 : Audio Coding 3
Mode extension              : CM (complete main)
Format settings, Endianness : Big
Codec ID                    : A_AC3
Duration                    : 52mn 11s
Bit rate mode               : Constant
Bit rate                    : 448 Kbps
Channel(s)                  : 6 channels
Channel positions           : Front: L C R, Side: L R, LFE
Sampling rate               : 48.0 KHz
Bit depth                   : 16 bits
Compression mode            : Lossy
Stream size                 : 167 MiB (2%)
Title                       : Commentary
Language                    : English
Default                     : No
Forced                      : No
Text #1
ID                          : 9
Format                      : UTF-8
Codec ID                    : S_TEXT/UTF8
Codec ID/Info               : UTF-8 Plain Text
Title                       : Forced
Language                    : Russian
Default                     : Yes
Forced                      : Yes
Text #2
ID                          : 10
Format                      : UTF-8
Codec ID                    : S_TEXT/UTF8
Codec ID/Info               : UTF-8 Plain Text
Title                       : Forced
Language                    : English
Default                     : No
Forced                      : Yes
Text #3
ID                          : 11
Format                      : UTF-8
Codec ID                    : S_TEXT/UTF8
Codec ID/Info               : UTF-8 Plain Text
Title                       : Amedia
Language                    : Russian
Default                     : No
Forced                      : No
Text #4
ID                          : 12
Format                      : UTF-8
Codec ID                    : S_TEXT/UTF8
Codec ID/Info               : UTF-8 Plain Text
Title                       : 7kingdoms
Language                    : Russian
Default                     : No
Forced                      : No
Text #5
ID                          : 13
Format                      : UTF-8
Codec ID                    : S_TEXT/UTF8
Codec ID/Info               : UTF-8 Plain Text
Language                    : English
Default                     : No
Forced                      : No
Menu
00:00:00.000                : en:00:00:00.000
00:01:55.532                : en:00:01:55.532
00:09:24.564                : en:00:09:24.564
00:18:00.663                : en:00:18:00.663
00:24:16.455                : en:00:24:16.455
00:32:26.820                : en:00:32:26.820
00:41:24.107                : en:00:41:24.107
00:50:51.924                : en:00:50:51.924
Download / Скачать

Хотите скачать бесплатно? Зарегистрируйтесь на сайте (ссылка на регистрацию). Pirat.ca - самый быстрый торрент трекер в рунете!

Как скачивать  ·   Что такое торрент  ·   Рейтинг и ограничения



Последний раз редактировалось: TERMOS (2016-03-25 13:35), всего редактировалось 1 раз

TERMOS ®

Легенда

12028

Пост 25-Мар-2016 00:16 (спустя 3 минуты)

[Q] 

Поклонникам, в преддверии нового сезона. Остальное - чуть позже.

_________________
[Профиль]  [ЛС] 

TERMOS ®

Легенда

12028

Пост 25-Мар-2016 13:36 (спустя 13 часов)

[Q] 

Весь сезон. Обновите торрент-файл!

_________________
[Профиль]  [ЛС] 

paradox113

Шкипер

16

Пост 11-Апр-2016 14:09 (спустя 17 дней)

[Q] 

Отличный сериал. Смотрю с первого сезона..
Не ожидал от американских сериалов чего-то действительно интересного плюс глубины мысли..
Приятное исключение из общего правила.
Плюс за сезон всего 10 серий: никакой воды.
Все смотрится как один реально хороший фильм.
На мой взгляд это действительно стоит посмотреть, причем, начиная с первого сезона.
P. S.
Тем кто начнет смотреть не с 1-го сезона сложно будет понять сюжет.
Плюс последний сезон самый жестокий (по-моему, авторы даже слегка переборщили с цинизмом).
Но жестокий не значит скучный..
[Профиль]  [ЛС] 

Пост 18-Май-2016 12:54 (спустя 1 месяц 6 дней)

Топик был перенесен из форума Сериалы в эфире в форум Зарубежные сериалы
Андря
 
Показать сообщения:    
Ответить на тему

Текущее время: Сегодня 01:47

Часовой пояс: GMT + 4



Вы не можете начинать темы
Вы не можете отвечать на сообщения
Вы не можете редактировать свои сообщения
Вы не можете удалять свои сообщения
Вы не можете голосовать в опросах
Вы не можете прикреплять файлы к сообщениям
Вы не можете скачивать файлы

▼ Вниз