ML
     
  Уважаемый Гость!
Вы можете поддержать проект и зарегистрироваться у наших партнеров - онлайн-стратегия MyLands. При регистрации в игре Вы получите код, который сможете активировать после регистрации на pirat.ca и получить 1000 дублонов.

Ваш код:
5af7de75d3db09b6a37bc8bab71b0e87ccde73d6
 
     

Завтра наступит сегодня / Утренний выпуск / Early Edition / Сезон: 3 из 4 / Серии: 1-23 и3 23 (Гэри Нельсон / Gary Nelson) [1998 г., фантастика, фэнтези, драма, TVRip] MVO (СТС)

Ответить на тему
 
Автор
Сообщение

Пост 26-Мар-2016 03:41

[Q] 

somik

Легенда

-Завтра наступит сегодня / Утренний выпуск / Early Edition-- Производство: США, Angelica Films, CBS Productions, Columbia TriStar Television, October Holdings, Sony Pictures Television International, Three Characters Inc, TriStar Television
Жанр: фантастика, фэнтези, драма
Год выпуска: 1998 г.
Продолжительность: 00:43:00
Мировая премьера: 26 сент. 1998
Перевод: Профессиональный (многоголосый, закадровый) [СТС]
Режиссер: Гэри Нельсон / Gary Nelson-В ролях: Кайл Чандлер / Kyle Chandler, Shanesia Davis / Шанезия Дэвис, Fisher Stevens / Фишер Стивенс, Билли Уорли, Кристи Суонсон, Майлс Джеффри, Рон Дин, Кошка Пантера / Panther the Cat, Джеймс Дьютер,Тесс Харпер и др.-Описание: Гари Хобсон был обычным чикагским биржевым маклером. Когда жена бросила Гари, ему пришлось перебраться в гостиницу. На следующий день рано утром таинственная рыжая кошка неожиданно появилась в дверях его номера с завтрашним выпуском газеты. С этого момента жизнь Гари изменилась, один день стал непохожим на другой. Вначале он отнесся к этому скептически, но потом начал спасать человеческие жизни и старался предотвратить бедствия. С помощью своих друзей, Чака и Мариссы, Гари стал человеком, выполняющим некую миссию, хотя так и не узнал, как и почему каждое утро у его дверей появлялась газета.-
Качество видео: TVRip
Контейнер: AVI
Видео кодек: DivX
Аудио кодек: MP3
Видео: Video: 512x384 (1.33:1), 25 fps, DivX Codec 5.2.1 alpha ~1085 kbps avg, 0.22 bit/pixel - Video
Аудио: Audio: 44.100 kHz, MPEG Layer 3, 1 ch, ~64.00 kbps avg - Audio
Cубтитры: отсутствуют
Сатурн, 1997 год:
Победитель (1): Лучший жанровый телеактер ( Кайл Чандлер )
Номинации (1): Лучший жанровый телесериал, сделанный для телетрансляции
Что сделали бы вы?
Были бы богаты или бедны?
Были бы вы знаменитостью или изгоем?
Были бы злодеем или героем?
Если бы могли изменять будущее?
Гарри Хобсон был обычным брокером. Но однажды всё резко изменилось. Он начинает получать завтрашнюю газету. Он не знает, откуда она приходит и почему. Он не носит трико, не стреляет паутиной и не борётся с чудовищными злодеями. Главный его козырь — это доброе сердце. Может это слишком много, а может мало? Действительно: «Нет простых ответов для парня получающего завтрашнюю газету»…
Помочь найти ответы сможет Мариса — мудрая самостоятельная и независимая женщина. Даже Чак — неисправимый весельчак, оболтус, но всё-таки добряк, всегда придёт на помощь.
Из всего этого мы получаем увлекательный сериал с хорошей идеей, продуманным сюжетом, философскими размышлениями и замечательным актёрским составом.
Кайл Чандлер (он же Гарри Хобсон) замечательно сыграл. Удивительны его мимика, интонации и жесты. Редкие актёры умеют играть лицом. Редко встретишь в сериалах хорошую актёрскую игру: конвейерное производство обязывает спешить, чтобы уложится в график. Но данный сериал — исключение.
Окунитесь в завтрашние новости вместе с Гарри Хобсоном!
10 из 10
Формат : AVI
Формат/Информация : Audio Video Interleave
Размер файла : 349 Мбайт
Продолжительность : 43 м.
Общий поток : 1123 Кбит/сек
Видео
Идентификатор : 0
Формат : MPEG-4 Visual
Параметр BVOP формата : 1
Параметр QPel формата : Нет
Параметр GMC формата : Без точки перехода
Параметр матрицы формата : Default (H.263)
Режим смешивания : Сжатый битовый поток
Идентификатор кодека : DX50
Идентификатор кодека/Подсказка : DivX 5
Продолжительность : 43 м.
Битрейт : 1050 Кбит/сек
Ширина : 512 пикселей
Высота : 384 пикселя
Соотношение сторон : 4:3
Частота кадров : 25,000 кадров/сек
Цветовое пространство : YUV
Субдискретизация насыщенности : 4:2:0
Битовая глубина : 8 бит
Тип развёртки : Прогрессивная
Метод сжатия : С потерями
Бит/(Пиксели*Кадры) : 0.214
Размер потока : 326 Мбайт (93%)
Заголовок : Video
Библиотека кодирования : DivX 5.2.1 Alpha (UTC 2004-09-08)
Аудио
Идентификатор : 1
Формат : MPEG Audio
Версия формата : Version 1
Профиль формата : Layer 3
Идентификатор кодека : 55
Идентификатор кодека/Подсказка : MP3
Продолжительность : 43 м.
Вид битрейта : Постоянный
Битрейт : 64,0 Кбит/сек
Каналы : 1 канал
Частота : 44,1 КГц
Метод сжатия : С потерями
Размер потока : 19,9 Мбайт (6%)
Выравнивание : Разделение по промежуткам
Продолжительность промежутка : 40 мс. (1,00 видеокадр)
Время предзагрузки промежутка : 500 мс.
Заголовок : Audio
Download / Скачать

Хотите скачать бесплатно? Зарегистрируйтесь на сайте (ссылка на регистрацию). Pirat.ca - самый быстрый торрент трекер в рунете!

Как скачивать  ·   Что такое торрент  ·   Рейтинг и ограничения

somik ®

Легенда

26788

Пост 26-Мар-2016 03:43 (спустя 2 минуты)

[Q] 

Для любителей добрых фантастических героических мелодрам. На любителя

_________________
Всё когда-нибудь уже было... В интернете!
[Профиль]  [ЛС] 

Пост 26-Мар-2016 09:41 (спустя 5 часов)

Топик был перенесен из форума Зарубежные сериалы (Трюм) в форум Зарубежные сериалы
Андря
 
Показать сообщения:    
Ответить на тему

Текущее время: Сегодня 14:13

Часовой пояс: GMT + 4



Вы не можете начинать темы
Вы не можете отвечать на сообщения
Вы не можете редактировать свои сообщения
Вы не можете удалять свои сообщения
Вы не можете голосовать в опросах
Вы не можете прикреплять файлы к сообщениям
Вы не можете скачивать файлы

▼ Вниз