ML
     
  Уважаемый Гость!
Вы можете поддержать проект и зарегистрироваться у наших партнеров - онлайн-стратегия MyLands. При регистрации в игре Вы получите код, который сможете активировать после регистрации на pirat.ca и получить 1000 дублонов.

Ваш код:
db0e0ad91548759ffeb9bb88bed405e1a4b3c165
 
     

Семья / The Family / Сезон: 1 / Серии: 1-12 (12) (Джон Грэй / John Gray, ...) [2016 г., драма, детектив, WEB-DL, 720p] Dub + Original (Eng) + Sub (Eng)

Ответить на тему
 
Автор
Сообщение

Пост 28-Мар-2016 20:16

[Q] 

TERMOS

Легенда

-Семья / The Family
«Secrets always come home»
(1 сезон)
-- Производство: США
Жанр: драма, детектив
Год выпуска: 2016 г.
Продолжительность: 12x ~00:42:00
Перевод: Профессиональный (полное дублирование) ["Кириллица"]
Оригинальный аудиопоток: английский
Режиссер: Джон Грэй / John Gray, Эндрю МакКарти / Andrew McCarthy, Холли Дэйл / Holly Dale-В ролях: Джоан Аллен, Руперт Грейвз, Элисон Пилл, Марго Бингхэм, Зак Гилфорд, Лиам Джеймс, Флориана Лима, Мадлен Артур, Рармиан Ньютон, Эндрю МакКарти-Описание: Когда сын Клэр Уоррен, мэра Калифорнийского города Ред Пайнс, возвращается после двенадцати лет считаясь мертвым, это затрагивает жизни не только семьи Уорренов, но и других персон, включая осужденного в его убийстве и сержанта, которая сделала карьеру на этом громком деле. Примечательно, что он возвращается как раз тогда, когда Клэр выдвигает свою кандидатуру на пост губернатора.
- -Качество видео: WEB-DL
Контейнер: MKV
Стандарт разрешения: 720p
Видео кодек: H.264/AVC
Аудио кодек: AC3
Видео: 1280x720, 25.000 fps, ~4000 Kbps avg
Аудио: Russian: AC3, 48 KHz, 2 ch, ~224 Kbps avg |Дубляж, "Кириллица"|
Аудио #2: English: AC3, 48 KHz, 5.1 (Front: L C R Side: L R) + LFE, ~384 Kbps avg
Cубтитры: английские
01. Pilot
02. All You See Is Dark
03. Of Puppies and Monsters
04. Feathers or Steel
05. I Win
06. Nowhere Man
07. All the Livelong Day
08. Sweet Jane
09. Betta Male
10. Fun Ways to Tell Boyfriend You're Pregnant
11. Election Day
12. What Took So Long
Код:
Format                      : Matroska
Format version              : Version 4 / Version 2
File size                   : 1.38 GiB
Duration                    : 41mn 13s
Overall bit rate            : 4 797 Kbps
Movie name                  : The.Family.S01E01.Pilot.720p.WEB-DL
Encoded date                : UTC 2016-03-22 16:10:59
Writing application         : mkvmerge v8.9.0 ('Father Daughter') 64bit
Writing library             : libebml v1.3.3 + libmatroska v1.4.4
Attachements                : Cover
DURATION                    : 00:40:19.261000000
NUMBER_OF_FRAMES            : 861
NUMBER_OF_BYTES             : 24379
_STATISTICS_WRITING_APP     : mkvmerge v8.9.0 ('Father Daughter') 64bit
_STATISTICS_WRITING_DATE_UT : 2016-03-22 16:10:59
_STATISTICS_TAGS            : BPS DURATION NUMBER_OF_FRAMES NUMBER_OF_BYTES
Video
ID                          : 1
Format                      : AVC
Format/Info                 : Advanced Video Codec
Format profile              : [email protected]
Format settings, CABAC      : No
Format settings, ReFrames   : 2 frames
Codec ID                    : V_MPEG4/ISO/AVC
Duration                    : 41mn 13s
Bit rate                    : 4 093 Kbps
Width                       : 1 280 pixels
Height                      : 720 pixels
Display aspect ratio        : 16:9
Frame rate mode             : Constant
Frame rate                  : 25.000 fps
Color space                 : YUV
Chroma subsampling          : 4:2:0
Bit depth                   : 8 bits
Scan type                   : Progressive
Bits/(Pixel*Frame)          : 0.178
Stream size                 : 1.18 GiB (85%)
Language                    : English
Default                     : Yes
Forced                      : No
Color primaries             : BT.709
Transfer characteristics    : BT.709
Matrix coefficients         : BT.709
Color range                 : Limited
Audio #1
ID                          : 2
Format                      : AC-3
Format/Info                 : Audio Coding 3
Mode extension              : CM (complete main)
Format settings, Endianness : Big
Codec ID                    : A_AC3
Duration                    : 41mn 13s
Bit rate mode               : Constant
Bit rate                    : 224 Kbps
Channel(s)                  : 2 channels
Channel positions           : Front: L R
Sampling rate               : 48.0 KHz
Bit depth                   : 16 bits
Compression mode            : Lossy
Stream size                 : 66.0 MiB (5%)
Language                    : Russian
Default                     : Yes
Forced                      : No
Audio #2
ID                          : 3
Format                      : AC-3
Format/Info                 : Audio Coding 3
Mode extension              : CM (complete main)
Format settings, Endianness : Big
Codec ID                    : A_AC3
Duration                    : 41mn 13s
Bit rate mode               : Constant
Bit rate                    : 384 Kbps
Channel(s)                  : 6 channels
Channel positions           : Front: L C R, Side: L R, LFE
Sampling rate               : 48.0 KHz
Bit depth                   : 16 bits
Compression mode            : Lossy
Stream size                 : 113 MiB (8%)
Language                    : English
Default                     : No
Forced                      : No
Text
ID                          : 4
Format                      : UTF-8
Codec ID                    : S_TEXT/UTF8
Codec ID/Info               : UTF-8 Plain Text
Title                       : СС
Language                    : English
Default                     : No
Forced                      : No
Download / Скачать

Хотите скачать бесплатно? Зарегистрируйтесь на сайте (ссылка на регистрацию). Pirat.ca - самый быстрый торрент трекер в рунете!

Как скачивать  ·   Что такое торрент  ·   Рейтинг и ограничения



Последний раз редактировалось: TERMOS (2016-07-02 12:02), всего редактировалось 4 раз(а)

TERMOS ®

Легенда

12068

Пост 06-Апр-2016 09:04 (спустя 8 дней)

[Q] 

Добавлена 4-я серия. Обновите торрент-файл!

_________________
[Профиль]  [ЛС] 

TERMOS ®

Легенда

12068

Пост 13-Апр-2016 11:40 (спустя 7 дней)

[Q] 

Добавлена 5-я серия. Обновите торрент-файл!

_________________
[Профиль]  [ЛС] 

TERMOS ®

Легенда

12068

Пост 21-Май-2016 14:46 (спустя 1 месяц 8 дней)

[Q] 

Добавлены 6-7 серии. Обновите торрент-файл!

_________________
[Профиль]  [ЛС] 

maaximkaa

Корсар

Пост 21-Май-2016 14:51 (спустя 4 минуты)

[Q] 

что за сериал? кто смотрел? что скажите?
Добавлено спустя 48 секунд:
эх ладно скачаю гляну первую серию
[Профиль]  [ЛС] 

maaximkaa

Корсар

Пост 26-Май-2016 01:00 (спустя 4 дня)

[Q] 

прошло 4 или 5 дней ни одной серии так и не скачалось, удаляюсь во своя си.. Отказать
[Профиль]  [ЛС] 

TERMOS ®

Легенда

12068

Пост 02-Июн-2016 21:32 (спустя 7 дней)

[Q] 

Добавлены 8-11 серии. Обновите торрент-файл!

_________________
[Профиль]  [ЛС] 

TERMOS ®

Легенда

12068

Пост 02-Июл-2016 12:03 (спустя 29 дней)

[Q] 

Добавлена 12-я серия. Финал! Обновите торрент-файл!

_________________
[Профиль]  [ЛС] 

Пост 02-Июл-2016 20:32 (спустя 8 часов)

Топик был перенесен из форума Сериалы в эфире в форум Зарубежные сериалы
Андря
 
Показать сообщения:    
Ответить на тему

Текущее время: Сегодня 08:08

Часовой пояс: GMT + 4



Вы не можете начинать темы
Вы не можете отвечать на сообщения
Вы не можете редактировать свои сообщения
Вы не можете удалять свои сообщения
Вы не можете голосовать в опросах
Вы не можете прикреплять файлы к сообщениям
Вы не можете скачивать файлы

▼ Вниз