ML
     
  Уважаемый Гость!
Вы можете поддержать проект и зарегистрироваться у наших партнеров - онлайн-стратегия MyLands. При регистрации в игре Вы получите код, который сможете активировать после регистрации на pirat.ca и получить 1000 дублонов.

Ваш код:
5f4e94775bc0501caff7b254e79328d304c817d9
 
     

Час пик / Rush Hour / Сезон: 1 / Серии: 13 из 13 (Джон Тёртелтауб / Jon Turteltaub ...) [2016 г., боевик, комедия, ... HDTVRip] MVO (BaibaKo) + Original (Eng) [Финал сериала]

Ответить на тему
 
Автор
Сообщение

Пост 29-Мар-2016 19:07

[Q] 

kugesan

-Час пик / Rush Hour
***
-- Производство: США
Жанр: боевик, комедия, ...
Год выпуска: 2016 г.-Озвучка: Студия
Перевод: Многоголосый закадровый, профессиональный
Оригинальный аудиопоток: английский-Перевод: Фиона Кудреватых
Озвучка: Юля Малахова, Дмитрий Нежельский, Акмал Гурезов и Руслан Иванов
Монтаж: Павел Дежин
Обложка: tvblog-Режиссер: Джон Тёртелтауб / Jon Turteltaub ...-В ролях: Джон ФуДжастин ХайрсМорис Комт, Скотт Ринкер, Бертон Перез, Джон М. Адриан, Crispin Alapag, Бетси Бейкер, Элисон Болл, Карисса Блейдс-Описание:
Сериал-ремейк одноименного фильма о приключениях болтливого копа и его напарника. Самодовольный офицер Картер считает, что командная работа не для него. Однако, в паре с ним вынужден работать Ли — офицер полиции Гонконга, который был направлен в Лос-Анджелес.-Сезон: 1
Серии: 13 из 13 серий
Продолжительность: ~ 00:43:00 мин серия-Качество видео: HDTVRip
Контейнер: AVI
Видео кодек: XviD
Аудио кодек: AC-3
Видео: MPEG-4 Visual at 1494 Кбит/сек: 720 x 400 (1.800) at 23.976 fps: 0.17 Бит/Пиксели
Аудио Rus: AC-3 at 192 Кбит/сек: 2 канала, 48,0 КГц |BaibaKo|
Аудио Eng: AC-3 at 192 Кбит/сек: 2 канала, 48,0 КГц |Original|
Cубтитры: отсутствуют
- -
  • Пилот (Pilot)
  • Два дня или где-то около того (Two Days, or The Number of Hours Within That Time Frame)
  • Плейлист капитана Коул (Captain Cole's Playlist)
  • Бум недвижимости в Лос-Анджелесе (LA Real Estate Boom)
  • Нападение на седьмой участок (Assault on Precinct 7)
  • С возвращением, Картер (Welcome Back, Carter)
  • Коп-задира (Badass Cop)
  • Под крылом второго пилота (Wind Beneath My Wingman)
  • Пленник любви (Prisoner of Love)
  • Маньяка в номер вызывали (Knock, Knock... House Creeping!)
  • О заложник! Мой заложник! (O Hostage! My Hostage!)
  • Тёмный рыцарь (The Dark Knight)
  • Семейные узы (Familee Ties)
-
Общее
Полное имя : E:\_Сериалы\_Сериалы\Час пик\Rush.Hour.s01.HDTVRip.Rus.Eng.BaibaKo\Rush.Hour.s01e01.HDTVRip.Rus.Eng.BaibaKo.tv.avi
Формат : AVI
Формат/Информация : Audio Video Interleave
Размер файла : 595 Мбайт
Продолжительность : 43 м.
Общий поток : 1895 Кбит/сек
Программа кодирования : VirtualDubMod 1.5.10.2 (build 2540/release)
Библиотека кодирования : VirtualDubMod build 2540/release
Видео
Идентификатор : 0
Формат : MPEG-4 Visual
Профиль формата : Advanced [email protected]
Параметр BVOP формата : 2
Параметр QPel формата : Нет
Параметр GMC формата : Без точки перехода
Параметр матрицы формата : Default (MPEG)
Идентификатор кодека : XVID
Идентификатор кодека/Подсказка : XviD
Продолжительность : 43 м.
Битрейт : 1494 Кбит/сек
Ширина : 720 пикселей
Высота : 400 пикселей
Соотношение сторон : 16:9
Частота кадров : 29,970 (29970/1000) кадров/сек
Цветовое пространство : YUV
Субдискретизация насыщенности : 4:2:0
Битовая глубина : 8 бит
Тип развёртки : Прогрессивная
Метод сжатия : С потерями
Бит/(Пиксели*Кадры) : 0.173
Размер потока : 469 Мбайт (79%)
Библиотека кодирования : XviD 1.2.0.dev47 (UTC 2006-11-01)
Аудио #1
Идентификатор : 1
Формат : AC-3
Формат/Информация : Audio Coding 3
Расширение режима : CM (complete main)
Параметр Endianness формата : Big
Идентификатор кодека : 2000
Продолжительность : 43 м.
Вид битрейта : Постоянный
Битрейт : 192 Кбит/сек
Каналы : 2 канала
Расположение каналов : Front: L R
Частота : 48,0 КГц
Частота кадров : 31,250 кадров/сек (1536 spf)
Метод сжатия : С потерями
Задержка видео : 8 мс.
Размер потока : 60,3 Мбайт (10%)
Выравнивание : Разделение по промежуткам
Продолжительность промежутка : 33 мс. (1,00 видеокадр)
Время предзагрузки промежутка : 500 мс.
Аудио #2
Идентификатор : 2
Формат : AC-3
Формат/Информация : Audio Coding 3
Расширение режима : CM (complete main)
Параметр Endianness формата : Big
Идентификатор кодека : 2000
Продолжительность : 43 м.
Вид битрейта : Постоянный
Битрейт : 192 Кбит/сек
Каналы : 2 канала
Расположение каналов : Front: L R
Частота : 48,0 КГц
Частота кадров : 31,250 кадров/сек (1536 spf)
Метод сжатия : С потерями
Задержка видео : 8 мс.
Размер потока : 60,3 Мбайт (10%)
Выравнивание : Разделение по промежуткам
Продолжительность промежутка : 33 мс. (1,00 видеокадр)
Время предзагрузки промежутка : 500 мс.
-
-Скриншоты:
-
-
Раздача ведётся путём добавления новых серий; при каждом добавлении создаётся новый торрент.
Чтобы начать докачку новой серии, пользователям необходимо сделать следующее:
1. остановить скачивание,
2. удалить старый торрент у себя из клиента (старые серии удалять не надо),
3. скачать новый торрент и запустить его у себя в клиенте вместо старого, при этом указать клиенту путь в старую папку, куда и должно происходить скачивание новых серий.
Ваш клиент при этом должен произвести хеширование (проверку) старой папки (если не производит сам - помогите ему сделать это), и будет докачивать только те серии которых у вас ещё нет. Старые серии при этом не удаляются, а продолжают раздаваться!
Eсли вы уже удалили старые серии, то предотвратить повторную закачку старых серий можно, отжав галочку в соответствующих местах при запуске нового торрента. По возможности, желательно не удалять старые серии как можно дольше, чтобы релизёр не столько продолжал раздавать старые серии, а смог сконцентрироваться на новых.
Совет для тех, кто не хочет ждать перехеширования:
Создайте ещё одну папку рядом с папкой сериала (рядом, а не в ней!!!). Каждую новую серию после удачной загрузки копируйте в новую папку так чтобы ваша основная папка всегда была пуста. Когда ваш новый торрент предложит вам закачать все файлы, выберете только последнюю. Для сидирования же укажите адрес новой папки.
Как закачать отдельный файл из торрента или докачать ранее пропущенные файлы торрента!
-
1. Открыть торрент
2. Снять галки с тех файлов торрента, которые мы не хотим закачивать. Оставляем только на нужных нам файлах (файле).
3. Нажать О.К.
В клиенте utorrent
Инструкция
1) Открыть торрент

2) Снять галки с тех файлов торрента, которые мы не хотим закачивать:
* либо вручную, снимая с каждого файла галку( скрин №1)
* либо, нажав кнопку "Снять метки (Select None)", сняв сразу со всех файлов(скрин №2)
№1

№2

Оставляем только на нужных нам файлах (файле).

3)Нажать О.К
-Добавлена тринадцатая, заключительная, серия первого сезона-Приятного просмотра!!!-
Download / Скачать

Хотите скачать бесплатно? Зарегистрируйтесь на сайте (ссылка на регистрацию). Pirat.ca - самый быстрый торрент трекер в рунете!

Как скачивать  ·   Что такое торрент  ·   Рейтинг и ограничения



Последний раз редактировалось: kugesan (2016-08-23 20:02), всего редактировалось 14 раз(а)

aqwes888

Штурман

Пост 29-Мар-2016 22:30 (спустя 3 часа)

[Q] 

Всё ,закончилась фантазия у америкос !!
[Профиль]  [ЛС] 

enotko

Морской Волк

Пост 01-Апр-2016 18:19 (спустя 2 дня 19 часов)

[Q] 

А как часто выходят серии?
[Профиль]  [ЛС] 

kugesan ®

56607

Пост 01-Апр-2016 19:07 (спустя 48 минут)

[Q] 

743953А как часто выходят серии?
По четвергам, плюс два-три дня на перевод и озвучивание.

_________________

В мире две бесконечности: вселенная и человеческая глупость - Альберт Эйнштен
«Можно вытащить человека из грязи, но нельзя вытащить грязь из человека»!
[Профиль]  [ЛС] 

Dewars

Морской Волк

99

Пост 21-Апр-2016 17:41 (спустя 19 дней)

[Q] 

Джеки Чан уже не тот
[Профиль]  [ЛС] 

kugesan ®

56607

Пост 30-Апр-2016 00:24 (спустя 8 дней)

[Q] 

Приятного просмотра!!!

_________________

В мире две бесконечности: вселенная и человеческая глупость - Альберт Эйнштен
«Можно вытащить человека из грязи, но нельзя вытащить грязь из человека»!
[Профиль]  [ЛС] 

BofRank

Корсар

535

Пост 06-Июн-2016 12:34 (спустя 1 месяц 6 дней)

[Q] 

попробуем посмотреть) спасибо)
[Профиль]  [ЛС] 

pvm

Корсар

Пост 18-Авг-2016 22:32 (спустя 2 месяца 12 дней)

[Q] 

Сериал явно проигрывает фильму
[Профиль]  [ЛС] 

Rei1

Флибустьер

Пост 18-Авг-2016 22:38 (спустя 5 минут)

[Q] 

Не мог к новым актерам привыкнуть первое время, а потом норм))
[Профиль]  [ЛС] 

Мулька

Шкипер

Пост 21-Авг-2016 13:36 (спустя 2 дня 14 часов)

[Q] 

слабовато даже по релизу ёп
[Профиль]  [ЛС] 
Показать сообщения:    
Ответить на тему

Текущее время: Сегодня 15:36

Часовой пояс: GMT + 4



Вы не можете начинать темы
Вы не можете отвечать на сообщения
Вы не можете редактировать свои сообщения
Вы не можете удалять свои сообщения
Вы не можете голосовать в опросах
Вы не можете прикреплять файлы к сообщениям
Вы не можете скачивать файлы

▼ Вниз