ML
     
  Уважаемый Гость!
Вы можете поддержать проект и зарегистрироваться у наших партнеров - онлайн-стратегия MyLands. При регистрации в игре Вы получите код, который сможете активировать после регистрации на pirat.ca и получить 1000 дублонов.

Ваш код:
9cfe162481db953a6549f32179d7b3900b8b8643
 
     

Призраки / Шпионы / Spooks / Сезон: 5 / Серии: 1-10 из 10 (Олрик Райли / Alrick Riley...) [2006 г., Триллер, Шпионский боевик, DVDRip] MVO (FOX Crime Бяко Рекордс) + Original (Eng)

Ответить на тему
 
Автор
Сообщение

Пост 29-Мар-2016 19:51

[Q] 

somik

Легенда

-Призраки / Шпионы / Spooks -- Производство: Великобритания, BBC Television Centre
Жанр: Триллер, Шпионский боевик
Год выпуска: 2006 г.
Продолжительность: 00:58:00
Мировая премьера: 17 сент. 2006
Перевод: Профессиональный (многоголосый, закадровый) [FOX Crime Бяко Рекордс]
Оригинальный аудиопоток: английский
Режиссер: Олрик Райли / Alrick Riley...-В ролях: Питер Фёрт, Хью Саймон, Николя Уолкер, Руперт Пенри-Джонс, Миранда Рэйсон, Гермиона Норрис, Рори МакГрегор, Ричард Армитедж, Раза Джеффри, Мэттью Макфэдиен-Описание: Британская Служба безопасности — или агентство британской контрразведки, более известное как МИ-5 — располагается в Thames House в Лондоне. В обязанности МИ-5 входит защита национальной безопасности Соединённого Королевства от скрыто организуемых угроз. Такие угрозы включают: терроризм, шпионаж и распространение оружия массового уничтожения (ОМУ). Кроме того, МИ-5 предоставляет консультации в сфере безопасности целому ряду других организаций и помогает им снизить уязвимость для возможных угроз, в частности, являясь неотъемлемой частью Объединённого разведывательного комитета.
Сериал рассказывает о работе агентов МИ-5, причём существенно выделяется на фоне жанра: в центре внимания не только головокружительные операции, но и внутренний мир тех, кому всё время приходится жить двойной жизнью, принимать тяжёлые решения в режиме реального времени и прислушиваться к голосу совести, когда обстоятельства меньше всего к этому располагают.-
Качество видео: DVDRip
Контейнер: AVI
Видео кодек: XviD
Аудио кодек: AC3
Видео: Video: 720x404 (1.78:1), 25 fps, XviD MPEG-4 ~1042 kbps avg, 0.14 bit/pixel
Аудио: Audio #1: 48 kHz, AC3 Dolby Digital, 2/0 (L,R) ch, ~192 kbps
Аудио #2: Audio #2: 48 kHz, AC3 Dolby Digital, 2/0 (L,R) ch, ~192 kbps
Cубтитры: отсутствуют
Сезон снят ещё до обострения в Грузии. Так что мы ещё не "главные враги западного мира".
Сатурн, 2008 год
Номинации (1): Лучшее DVD-издание телесериала — «Volumes 4 & 5»
Сатурн, 2007 год
Номинации (1): Лучшее DVD-издание телесериала — «For Volume 4»
Формат : AVI
Формат/Информация : Audio Video Interleave
Размер файла : 602 Мбайт
Продолжительность : 58 м.
Общий поток : 1442 Кбит/сек
Программа кодирования : VirtualDubMod 1.5.10.2 (build 2542/release)
Библиотека кодирования : VirtualDubMod build 2542/release
Видео
Идентификатор : 0
Формат : MPEG-4 Visual
Профиль формата : Advanced [email protected]
Параметр BVOP формата : 2
Параметр QPel формата : Нет
Параметр GMC формата : Без точки перехода
Параметр матрицы формата : Default (H.263)
Режим смешивания : Сжатый битовый поток
Идентификатор кодека : XVID
Идентификатор кодека/Подсказка : XviD
Продолжительность : 58 м.
Битрейт : 1044 Кбит/сек
Ширина : 720 пикселей
Высота : 404 пикселя
Соотношение сторон : 16:9
Частота кадров : 25,000 кадров/сек
Цветовое пространство : YUV
Субдискретизация насыщенности : 4:2:0
Битовая глубина : 8 бит
Тип развёртки : Прогрессивная
Метод сжатия : С потерями
Бит/(Пиксели*Кадры) : 0.144
Размер потока : 436 Мбайт (72%)
Библиотека кодирования : XviD 1.2.1 (UTC 2008-12-04)
Аудио #1
Идентификатор : 1
Формат : AC-3
Формат/Информация : Audio Coding 3
Расширение режима : CM (complete main)
Параметр Endianness формата : Big
Идентификатор кодека : 2000
Продолжительность : 58 м.
Вид битрейта : Постоянный
Битрейт : 192 Кбит/сек
Каналы : 2 канала
Расположение каналов : Front: L R
Частота : 48,0 КГц
Частота кадров : 31,250 кадров/сек (1536 spf)
Метод сжатия : С потерями
Размер потока : 80,1 Мбайт (13%)
Выравнивание : Разделение по промежуткам
Продолжительность промежутка : 40 мс. (1,00 видеокадр)
Время предзагрузки промежутка : 500 мс.
Аудио #2
Идентификатор : 2
Формат : AC-3
Формат/Информация : Audio Coding 3
Расширение режима : CM (complete main)
Параметр Endianness формата : Big
Идентификатор кодека : 2000
Продолжительность : 58 м.
Вид битрейта : Постоянный
Битрейт : 192 Кбит/сек
Каналы : 2 канала
Расположение каналов : Front: L R
Частота : 48,0 КГц
Частота кадров : 31,250 кадров/сек (1536 spf)
Метод сжатия : С потерями
Задержка видео : 23 мс.
Размер потока : 80,1 Мбайт (13%)
Выравнивание : Разделение по промежуткам
Продолжительность промежутка : 40 мс. (1,00 видеокадр)
Время предзагрузки промежутка : 500 мс.
Download / Скачать

Хотите скачать бесплатно? Зарегистрируйтесь на сайте (ссылка на регистрацию). Pirat.ca - самый быстрый торрент трекер в рунете!

Как скачивать  ·   Что такое торрент  ·   Рейтинг и ограничения

somik ®

Легенда

26928

Пост 29-Мар-2016 22:35 (спустя 2 часа 44 минуты)

[Q] 

Против них все: и свои и чужие... А, ведь, и на работу надо! На любителя

_________________
Всё когда-нибудь уже было... В интернете!
[Профиль]  [ЛС] 
Показать сообщения:    
Ответить на тему

Текущее время: Сегодня 06:00

Часовой пояс: GMT + 4



Вы не можете начинать темы
Вы не можете отвечать на сообщения
Вы не можете редактировать свои сообщения
Вы не можете удалять свои сообщения
Вы не можете голосовать в опросах
Вы не можете прикреплять файлы к сообщениям
Вы не можете скачивать файлы

▼ Вниз