ML
     
  Уважаемый Гость!
Вы можете поддержать проект и зарегистрироваться у наших партнеров - онлайн-стратегия MyLands. При регистрации в игре Вы получите код, который сможете активировать после регистрации на pirat.ca и получить 1000 дублонов.

Ваш код:
47bfc18b89c74e4ae0d974e9b6943639e2bff08e
 
     

Призраки / Шпионы / Spooks / Сезон: 6 из 10 / Серии: 1-10 из 10 (Олрик Райли / Alrick Riley...) [2007 г., Триллер, Шпионский боевик, DVDRip] MVO (FOX Crime) + Original (Eng)

Ответить на тему
 
Автор
Сообщение

Пост 29-Мар-2016 20:55

[Q] 

somik

Легенда

-Призраки / Шпионы / Spooks-- Производство: Великобритания, BBC Television Centre
Жанр: Триллер, Шпионский боевик
Год выпуска: 2007 г.
Продолжительность: 00:52:00
Мировая премьера: 16 октябрь 2007
Перевод: Профессиональный (многоголосый, закадровый) [FOX Crime]
Оригинальный аудиопоток: английский
Режиссер: Олрик Райли / Alrick Riley...-В ролях: Питер Фёрт, Хью Саймон, Николя Уолкер, Руперт Пенри-Джонс, Миранда Рэйсон, Гермиона Норрис, Рори МакГрегор, Ричард Армитедж, Раза Джеффри, Мэттью Макфэдиен-Описание: Британская Служба безопасности — или агентство британской контрразведки, более известное как МИ-5 — располагается в Thames House в Лондоне. В обязанности МИ-5 входит защита национальной безопасности Соединённого Королевства от скрыто организуемых угроз. Такие угрозы включают: терроризм, шпионаж и распространение оружия массового уничтожения (ОМУ). Кроме того, МИ-5 предоставляет консультации в сфере безопасности целому ряду других организаций и помогает им снизить уязвимость для возможных угроз, в частности, являясь неотъемлемой частью Объединённого разведывательного комитета.
Сериал рассказывает о работе агентов МИ-5, причём существенно выделяется на фоне жанра: в центре внимания не только головокружительные операции, но и внутренний мир тех, кому всё время приходится жить двойной жизнью, принимать тяжёлые решения в режиме реального времени и прислушиваться к голосу совести, когда обстоятельства меньше всего к этому располагают.-
Качество видео: DVDRip
Контейнер: AVI
Видео кодек: XviD
Аудио кодек: MP3
Видео: Video: 576x432 (1.33:1), 25 fps, XviD MPEG-4 ~1000 kbps avg, 0.16 bit/pixel
Аудио: Audio: 48 kHz, MPEG Layer 3, 2 ch, ~128.00 kbps avg
Cубтитры: отсутствуют
Сериал с совестью...
Сатурн, 2008 год
Номинации (1): Лучшее DVD-издание телесериала — «Volumes 4 & 5»
Сатурн, 2007 год
Номинации (1): Лучшее DVD-издание телесериала — «For Volume 4»
Полное имя : D:\D\Призраки 6\Spioni_VI_01-10_DVDRip_[pirat.ca]\Spooks_s06e01_[pirat.ca].avi
Формат : AVI
Формат/Информация : Audio Video Interleave
Размер файла : 448 Мбайт
Продолжительность : 54 м.
Общий поток : 1139 Кбит/сек
Программа кодирования : VirtualDubMod 1.5.10.2 (build 2542/release)
Библиотека кодирования : VirtualDubMod build 2542/release
Видео
Идентификатор : 0
Формат : MPEG-4 Visual
Профиль формата : Advanced [email protected]
Параметр BVOP формата : 2
Параметр QPel формата : Нет
Параметр GMC формата : Без точки перехода
Параметр матрицы формата : Default (H.263)
Режим смешивания : Сжатый битовый поток
Идентификатор кодека : XVID
Идентификатор кодека/Подсказка : XviD
Продолжительность : 54 м.
Битрейт : 1001 Кбит/сек
Ширина : 576 пикселей
Высота : 432 пикселя
Соотношение сторон : 4:3
Частота кадров : 25,000 кадров/сек
Цветовое пространство : YUV
Субдискретизация насыщенности : 4:2:0
Битовая глубина : 8 бит
Тип развёртки : Прогрессивная
Метод сжатия : С потерями
Бит/(Пиксели*Кадры) : 0.161
Размер потока : 393 Мбайт (88%)
Библиотека кодирования : XviD 1.1.2 (UTC 2006-11-01)
Аудио
Идентификатор : 1
Формат : MPEG Audio
Версия формата : Version 1
Профиль формата : Layer 3
Режим : Joint stereo
Расширение режима : MS Stereo
Идентификатор кодека : 55
Идентификатор кодека/Подсказка : MP3
Продолжительность : 54 м.
Вид битрейта : Постоянный
Битрейт : 128 Кбит/сек
Каналы : 2 канала
Частота : 48,0 КГц
Метод сжатия : С потерями
Размер потока : 50,3 Мбайт (11%)
Выравнивание : Соединение по промежуткам
Продолжительность промежутка : 40 мс. (1,00 видеокадр)
Время предзагрузки промежутка : 504 мс.
Download / Скачать

Хотите скачать бесплатно? Зарегистрируйтесь на сайте (ссылка на регистрацию). Pirat.ca - самый быстрый торрент трекер в рунете!

Как скачивать  ·   Что такое торрент  ·   Рейтинг и ограничения

somik ®

Легенда

27095

Пост 29-Мар-2016 20:59 (спустя 3 минуты)

[Q] 

Неадекватный сериал, неадекватный сезон... Сезон с совестью. На любителя

_________________
Всё когда-нибудь уже было... В интернете!
[Профиль]  [ЛС] 
Показать сообщения:    
Ответить на тему

Текущее время: Сегодня 07:04

Часовой пояс: GMT + 4



Вы не можете начинать темы
Вы не можете отвечать на сообщения
Вы не можете редактировать свои сообщения
Вы не можете удалять свои сообщения
Вы не можете голосовать в опросах
Вы не можете прикреплять файлы к сообщениям
Вы не можете скачивать файлы

▼ Вниз