ML
     
  Уважаемый Гость!
Вы можете поддержать проект и зарегистрироваться у наших партнеров - онлайн-стратегия MyLands. При регистрации в игре Вы получите код, который сможете активировать после регистрации на pirat.ca и получить 1000 дублонов.

Ваш код:
a978488e62322cd72e113ab723b8a7fdc10eb9b9
 
     

Шпионка / Alias / Сезон: 2 из 5 / Серии: 1-22 из 22 (Кен Олин / Ken Olin...) [2002 г., фантастика, боевик, триллер, драма, детектив, DVDRip] MVO [+ Original (Eng)] (SET Russia)

Ответить на тему
 
Автор
Сообщение

Пост 31-Мар-2016 04:46

[Q] 

somik

Легенда

-Шпионка / Alias-- Производство: США, Bad Robot, Touchstone Television
Жанр: фантастика, боевик, триллер, драма, детектив
Год выпуска: 2002 г.
Продолжительность: 00:45:00
Мировая премьера: 29 сент. 2002
Перевод: Профессиональный (многоголосый, закадровый) [SET Russia]
Оригинальный аудиопоток: английский
Режиссер: Кен Олин / Ken Olin...-В ролях: Дженнифер Гарнер, Майкл Вартан, Рон Рифкин, Виктор Гарбер, Карл Ламбли, Кевин Уайзман, Грег Гранберг, Брэдли Купер, Дэвид Андерс, Меррин Данги-Описание: Переезды по всему миру, борьба с "плохими парнями", двойная жизнь и опасность, подстерегающая на каждом шагу. Для Сидни Бристоу (Дженифер Гарнер) это – обычный день на еe необычной работе. Она - агент сверхсекретного подразделения - группы СД-6. Однажды от своего отца Джека (Виктор Гарбер) Сидни узнаёт страшную правду: оказывается, она работает на международную шпионскую организацию. Когда жених Сидни узнает о том, что она - шпионка, СД-6 убивает его. После этого Сидни дает себе слово уничтожить организацию. И становится двойным агентом ЦРУ. Теперь она должна хранить в строжайшем секрете двойственность своего существования и от партнёров по СД-6, и от своих близких..-
Качество видео: DVDRip
Контейнер: AVI
Видео кодек: XviD
Аудио кодек: MP3
Видео: Video: 608x336 (1.81:1), 23.976 fps, XviD MPEG-4 ~1015 kbps avg, 0.21 bit/pixel
Аудио: Audio #1: 48 kHz, MPEG Layer 3, 2 ch, ~160.00 kbps avg
Аудио #2: Audio #2: 48 kHz, MPEG Layer 3, 2 ch, ~160.00 kbps avg
Cубтитры: отсутствуют
Сатурн, 2006 год
Номинации (1):
• Лучшая телеактриса (Дженнифер Гарнер)
Золотой глобус, 2005 год
Номинации (1):
• Лучшая женская роль на ТВ (драма) (Дженнифер Гарнер)
Сатурн, 2005 год
Номинации (2):
• Лучшая телеактриса (Дженнифер Гарнер)
• Лучший телесериал, созданный для телетрансляции
Эмми, 2005 год
Номинации (1):
• Лучшая женская роль в драматическом сериале (Дженнифер Гарнер)
Премия Гильдии актеров, 2005 год
Победитель (1):
• Лучшая актриса драматического сериала ( Дженнифер Гарнер )
Золотой глобус, 2004 год
Номинации (1):
• Лучшая женская роль на ТВ (драма) (Дженнифер Гарнер)
Сатурн, 2004 год
Победитель (1):
• Премия журнала Cinescape (Genre Face of the Future) за лучшую женскую роль ( Мелисса Джордж )
Номинации (4):
• Лучший телеактер сериала (Майкл Вартан)
• Лучшая телеактриса сериала (Дженнифер Гарнер)
• Лучший актер второго плана в телесериале (Виктор Гарбер)
• Лучший телесериал, созданный для телетрансляции
Эмми, 2004 год
Номинации (2):
• Лучшая женская роль в драматическом сериале (Дженнифер Гарнер)
• Лучшая мужская роль второго плана в драматическом сериале (Виктор Гарбер)
Премия Гильдии актеров, 2004 год
Номинации (1):
• Лучшая актриса драматического сериала (Дженнифер Гарнер)
Золотой глобус, 2003 год
Номинации (1):
• Лучшая женская роль на ТВ (драма) (Дженнифер Гарнер)
Сатурн, 2003 год
Победитель (3):
• Лучшая телеактриса сериала ( Дженнифер Гарнер )
• Лучший актер второго плана в телесериале ( Виктор Гарбер )
• Лучший телесериал, созданный для телетрансляции
Эмми, 2003 год
Номинации (3):
• Лучшая женская роль в драматическом сериале (Дженнифер Гарнер)
• Лучшая мужская роль второго плана в драматическом сериале (Виктор Гарбер)
• Лучшая женская роль второго плана в драматическом сериале (Лена Олин)
Золотой глобус, 2002 год
Победитель (1):
• Лучшая женская роль на ТВ (драма) ( Дженнифер Гарнер )
Номинации (1):
• Лучший драматический сериал
Эмми, 2002 год
Номинации (2):
• Лучшая женская роль в драматическом сериале (Дженнифер Гарнер)
• Лучшая мужская роль второго плана в драматическом сериале (Виктор Гарбер)
Ещё, ещё!!!
Я сама себе удивляюсь, что когда-то так подсела на этот сериал. Когда его еще показывали по ТВ, видела не все серии — о том, что сериал показывают утром, узнала слишком поздно — 3-ий сезон закончился, 4-ый еще снимали. Потом, к счастью, в магазинах появились диски, так что я наверстала упущенное.
Не знаю, чем так захватил меня этот сериал. Может тем, что жизнь главной героини настолько насыщена, что и представить себе сложно. Может и тем, что не всё так просто здесь и показана сторона жизни, о которой мы, простые люди, мало что знаем. Неважно, насколько правдиво это показано, главное, что на это интересно смотреть.
Как обычно бывает, после второго сезона начали происходить очень странные вещи — идей стало маловато, сюжет высасывали неизвестно откуда, но мне всё равно было интересно и будет интересно — с огромным удовольствием пересматриваю серии — то, как фоном, то, снова сидя и внимательно пялясь в экран.
Дженнифер Гарнер просто великолепна. Не больше, не меньше. На n-ое количество сезонов она стала Сидни Бристоу, оружием в руках ЦРУ. Может, сериал и подкупил меня тем, что я безоговорочно поверила Гарнер, точнее поверила, что передо мной история некой Сидни. Такое со мной бывает крайне редко.
Отдельно необходимо отметить Виктора Гарбера, Рона Рифкина и Лену Олин. Лгуны, бойцы, и просто интересные у них персонажи.
Учитывая то, что мне очень нравится сериал, сказать, что какой-то герой здесь лишний, я не могу. Кого-то хочется придушить сейчас, кого-то потом. Но они, герои, какими бы они не были — это сериал, который я так люблю.
Формат : AVI
Формат/Информация : Audio Video Interleave
Размер файла : 641 Мбайт
Продолжительность : 1 ч. 6 м.
Общий поток : 1350 Кбит/сек
Программа кодирования : VirtualDubMod 1.5.10.2 (build 2540/release)
Библиотека кодирования : VirtualDubMod build 2540/release
Видео
Идентификатор : 0
Формат : MPEG-4 Visual
Параметр BVOP формата : Нет
Параметр QPel формата : Нет
Параметр GMC формата : Без точки перехода
Параметр матрицы формата : Default (MPEG)
Идентификатор кодека : XVID
Идентификатор кодека/Подсказка : XviD
Продолжительность : 1 ч. 6 м.
Битрейт : 1016 Кбит/сек
Ширина : 608 пикселей
Высота : 336 пикселей
Соотношение сторон : 16:9
Частота кадров : 23,976 (23976/1000) кадра/сек
Цветовое пространство : YUV
Субдискретизация насыщенности : 4:2:0
Битовая глубина : 8 бит
Тип развёртки : Прогрессивная
Метод сжатия : С потерями
Бит/(Пиксели*Кадры) : 0.208
Размер потока : 482 Мбайт (75%)
Аудио #1
Идентификатор : 1
Формат : MPEG Audio
Версия формата : Version 1
Профиль формата : Layer 3
Режим : Joint stereo
Идентификатор кодека : 55
Идентификатор кодека/Подсказка : MP3
Продолжительность : 1 ч. 6 м.
Вид битрейта : Постоянный
Битрейт : 160 Кбит/сек
Каналы : 2 канала
Частота : 48,0 КГц
Метод сжатия : С потерями
Размер потока : 75,9 Мбайт (12%)
Выравнивание : Соединение по промежуткам
Продолжительность промежутка : 42 мс. (1,00 видеокадр)
Время предзагрузки промежутка : 504 мс.
Аудио #2
Идентификатор : 2
Формат : MPEG Audio
Версия формата : Version 1
Профиль формата : Layer 3
Идентификатор кодека : 55
Идентификатор кодека/Подсказка : MP3
Продолжительность : 1 ч. 6 м.
Вид битрейта : Постоянный
Битрейт : 160 Кбит/сек
Каналы : 2 канала
Частота : 48,0 КГц
Метод сжатия : С потерями
Размер потока : 75,9 Мбайт (12%)
Выравнивание : Соединение по промежуткам
Продолжительность промежутка : 42 мс. (1,00 видеокадр)
Время предзагрузки промежутка : 504 мс.
Библиотека кодирования : LAME3.98r
Настройки программы : -m s -V 4 -q 2 -lowpass 17.5 -b 160
Download / Скачать

Хотите скачать бесплатно? Зарегистрируйтесь на сайте (ссылка на регистрацию). Pirat.ca - самый быстрый торрент трекер в рунете!

Как скачивать  ·   Что такое торрент  ·   Рейтинг и ограничения

somik ®

Легенда

26961

Пост 31-Мар-2016 04:50 (спустя 4 минуты)

[Q] 

Захватывает... А чего особенного?! На любителя

_________________
Всё когда-нибудь уже было... В интернете!
[Профиль]  [ЛС] 

Пост 31-Мар-2016 20:44 (спустя 15 часов)

Топик был перенесен из форума Зарубежные сериалы (Трюм) в форум Зарубежные сериалы
Андря
 
Показать сообщения:    
Ответить на тему

Текущее время: Сегодня 22:06

Часовой пояс: GMT + 4



Вы не можете начинать темы
Вы не можете отвечать на сообщения
Вы не можете редактировать свои сообщения
Вы не можете удалять свои сообщения
Вы не можете голосовать в опросах
Вы не можете прикреплять файлы к сообщениям
Вы не можете скачивать файлы

▼ Вниз