ML
     
  Уважаемый Гость!
Вы можете поддержать проект и зарегистрироваться у наших партнеров - онлайн-стратегия MyLands. При регистрации в игре Вы получите код, который сможете активировать после регистрации на pirat.ca и получить 1000 дублонов.

Ваш код:
0fcd44bd35319f69313aa6e53b31c51cbff1c942
 
     

Шпионка / Alias / Сезон: 3-5 из 5 / Серии: 61 из 61 (Кен Олин / Ken Olin...) [2003 г., фантастика, боевик, триллер, драма, детектив, DVDRip] MVO (SET Russia)

Ответить на тему
 
Автор
Сообщение

Пост 31-Мар-2016 19:21

[Q] 

somik

Легенда

-Шпионка / Alias-- Производство: США, Bad Robot, Touchstone Television
Жанр: фантастика, боевик, триллер, драма, детектив
Год выпуска: 2003 г.
Продолжительность: 00:43:00
Мировая премьера: 28 сент. 2003
Перевод: Профессиональный (многоголосый, закадровый) [SET Russia]
Режиссер: Кен Олин / Ken Olin...-В ролях: Дженнифер Гарнер, Майкл Вартан, Рон Рифкин, Виктор Гарбер, Карл Ламбли, Кевин Уайзман, Грег Гранберг, Брэдли Купер, Дэвид Андерс, Меррин Данги-Описание: Переезды по всему миру, борьба с "плохими парнями", двойная жизнь и опасность, подстерегающая на каждом шагу. Для Сидни Бристоу (Дженифер Гарнер) это – обычный день на еe необычной работе. Она - агент сверхсекретного подразделения - группы СД-6. Однажды от своего отца Джека (Виктор Гарбер) Сидни узнаёт страшную правду: оказывается, она работает на международную шпионскую организацию. Когда жених Сидни узнает о том, что она - шпионка, СД-6 убивает его. После этого Сидни дает себе слово уничтожить организацию. И становится двойным агентом ЦРУ. Теперь она должна хранить в строжайшем секрете двойственность своего существования и от партнёров по СД-6, и от своих близких...-
Качество видео: DVDRip
Контейнер: AVI
Видео кодек: XviD
Аудио кодек: MP3
Видео: Video: 640x368 (1.74:1), 23.976 fps, XviD Final 1.0.1 (build 35) ~999 kbps avg, 0.18 bit/pixel
Аудио: Audio: 48 kHz, MPEG Layer 3, 2 ch, ~128.00 kbps avg
Cубтитры: отсутствуют
Сатурн, 2006 год
Номинации (1):
• Лучшая телеактриса (Дженнифер Гарнер)
Золотой глобус, 2005 год
Номинации (1):
• Лучшая женская роль на ТВ (драма) (Дженнифер Гарнер)
Сатурн, 2005 год
Номинации (2):
• Лучшая телеактриса (Дженнифер Гарнер)
• Лучший телесериал, созданный для телетрансляции
Эмми, 2005 год
Номинации (1):
• Лучшая женская роль в драматическом сериале (Дженнифер Гарнер)
Премия Гильдии актеров, 2005 год
Победитель (1):
• Лучшая актриса драматического сериала ( Дженнифер Гарнер )
Золотой глобус, 2004 год
Номинации (1):
• Лучшая женская роль на ТВ (драма) (Дженнифер Гарнер)
Сатурн, 2004 год
Победитель (1):
• Премия журнала Cinescape (Genre Face of the Future) за лучшую женскую роль ( Мелисса Джордж )
Номинации (4):
• Лучший телеактер сериала (Майкл Вартан)
• Лучшая телеактриса сериала (Дженнифер Гарнер)
• Лучший актер второго плана в телесериале (Виктор Гарбер)
• Лучший телесериал, созданный для телетрансляции
Эмми, 2004 год
Номинации (2):
• Лучшая женская роль в драматическом сериале (Дженнифер Гарнер)
• Лучшая мужская роль второго плана в драматическом сериале (Виктор Гарбер)
Премия Гильдии актеров, 2004 год
Номинации (1):
• Лучшая актриса драматического сериала (Дженнифер Гарнер)
Золотой глобус, 2003 год
Номинации (1):
• Лучшая женская роль на ТВ (драма) (Дженнифер Гарнер)
Сатурн, 2003 год
Победитель (3):
• Лучшая телеактриса сериала ( Дженнифер Гарнер )
• Лучший актер второго плана в телесериале ( Виктор Гарбер )
• Лучший телесериал, созданный для телетрансляции
Эмми, 2003 год
Номинации (3):
• Лучшая женская роль в драматическом сериале (Дженнифер Гарнер)
• Лучшая мужская роль второго плана в драматическом сериале (Виктор Гарбер)
• Лучшая женская роль второго плана в драматическом сериале (Лена Олин)
Золотой глобус, 2002 год
Победитель (1):
• Лучшая женская роль на ТВ (драма) ( Дженнифер Гарнер )
Номинации (1):
• Лучший драматический сериал
Эмми, 2002 год
Номинации (2):
• Лучшая женская роль в драматическом сериале (Дженнифер Гарнер)
• Лучшая мужская роль второго плана в драматическом сериале (Виктор Гарбер)
Формат : AVI
Формат/Информация : Audio Video Interleave
Размер файла : 350 Мбайт
Продолжительность : 42 м.
Общий поток : 1137 Кбит/сек
Программа кодирования : VirtualDubMod 1.5.10.2 (build 2542/release)
Библиотека кодирования : VirtualDubMod build 2542/release
Видео
Идентификатор : 0
Формат : MPEG-4 Visual
Профиль формата : Advanced [email protected]
Параметр BVOP формата : 2
Параметр QPel формата : Нет
Параметр GMC формата : Без точки перехода
Параметр матрицы формата : Default (H.263)
Режим смешивания : Сжатый битовый поток
Идентификатор кодека : XVID
Идентификатор кодека/Подсказка : XviD
Продолжительность : 42 м.
Битрейт : 1000 Кбит/сек
Ширина : 640 пикселей
Высота : 368 пикселей
Соотношение сторон : 1,739
Частота кадров : 23,976 (23976/1000) кадра/сек
Цветовое пространство : YUV
Субдискретизация насыщенности : 4:2:0
Битовая глубина : 8 бит
Тип развёртки : Прогрессивная
Метод сжатия : С потерями
Бит/(Пиксели*Кадры) : 0.177
Размер потока : 307 Мбайт (88%)
Библиотека кодирования : XviD 1.0.1 (UTC 2004-06-05)
Аудио
Идентификатор : 1
Формат : MPEG Audio
Версия формата : Version 1
Профиль формата : Layer 3
Режим : Joint stereo
Расширение режима : MS Stereo
Идентификатор кодека : 55
Идентификатор кодека/Подсказка : MP3
Продолжительность : 42 м.
Вид битрейта : Постоянный
Битрейт : 128 Кбит/сек
Каналы : 2 канала
Частота : 48,0 КГц
Метод сжатия : С потерями
Размер потока : 39,4 Мбайт (11%)
Выравнивание : Соединение по промежуткам
Продолжительность промежутка : 42 мс. (1,00 видеокадр)
Время предзагрузки промежутка : 504 мс.
Download / Скачать

Хотите скачать бесплатно? Зарегистрируйтесь на сайте (ссылка на регистрацию). Pirat.ca - самый быстрый торрент трекер в рунете!

Как скачивать  ·   Что такое торрент  ·   Рейтинг и ограничения

somik ®

Легенда

26928

Пост 31-Мар-2016 19:58 (спустя 37 минут)

[Q] 

Сериал закончен. Несмотря на множество наград - 5й сезон мне как-то не очень... Но для полноты картины надо и его глянуть. На любителя

_________________
Всё когда-нибудь уже было... В интернете!
[Профиль]  [ЛС] 

Пост 31-Мар-2016 20:44 (спустя 45 минут)

Топик был перенесен из форума Зарубежные сериалы (Трюм) в форум Зарубежные сериалы
Андря
 

jofrei53

Корсар

Пост 01-Апр-2016 14:52 (спустя 18 часов)

[Q] 

Спасибо! Сериал не плохой.....5-й сезон просмотреть ещё разок, не полностью смотрел. Автору респект!!! Спасибо!!!
[Профиль]  [ЛС] 

somik ®

Легенда

26928

Пост 01-Апр-2016 16:16 (спустя 1 час 23 минуты)

[Q] 

Сэр, я надеюсь Вам ещё пригодиться. Вы, только, сообщите Ваши интересы!

_________________
Всё когда-нибудь уже было... В интернете!
[Профиль]  [ЛС] 
Показать сообщения:    
Ответить на тему

Текущее время: Сегодня 02:13

Часовой пояс: GMT + 4



Вы не можете начинать темы
Вы не можете отвечать на сообщения
Вы не можете редактировать свои сообщения
Вы не можете удалять свои сообщения
Вы не можете голосовать в опросах
Вы не можете прикреплять файлы к сообщениям
Вы не можете скачивать файлы

▼ Вниз