ML
     
  Уважаемый Гость!
Вы можете поддержать проект и зарегистрироваться у наших партнеров - онлайн-стратегия MyLands. При регистрации в игре Вы получите код, который сможете активировать после регистрации на pirat.ca и получить 1000 дублонов.

Ваш код:
c3360d664ceb84802c84b88ed062a5d134e2ba97
 
     

Подводная лодка / Das Boot / TV мини-сериал / Серии: 1-6 (6) (Вольфганг Петерсен / Wolfgang Petersen) [1985 г., драма, приключения, военный, BDRip, 720p] MVO (Синема Престиж) + Original (Ger) + Sub (Rus, Eng)

Ответить на тему
 
Автор
Сообщение

Пост 01-Апр-2016 14:01

[Q] 

TERMOS

Легенда

-Подводная лодка / Das Boot
(Полная режиссерская версия)
-- Производство: Германия (ФРГ), Великобритания, Франция
Жанр: драма, приключения, военный
Год выпуска: 1985 г.
Продолжительность: 6x ~00:50:00
Перевод: Профессиональный (многоголосый, закадровый) [Синема Престиж]
Оригинальный аудиопоток: немецкий
Режиссер: Вольфганг Петерсен / Wolfgang Petersen-В ролях: Юрген Прохнов, Херберт Грёнемайер, Клаус Веннеманн, Хабертус Бенгш, Мартин Земмельрогге, Бернд Таубер, Эрвин Ледер, Мартин Май, Хайнц Хёниг, Уве Оксенкнехт-Описание: Осень 1941 года. Немецкая подводная лодка отправляется в Атлантический океан, место противостояния германского и английского флотов. Жизнь по строгому распорядку, учебные тревоги, воспоминания о семьях и любимых девушках, соленые мужские шуточки… Скоро всё это закончится. Потому что впереди – ад и никакой надежды на спасение…
- - -Качество видео: BDRip
Источник: 1985 Original Uncut Version 1080i GER Blu-ray AVC DTS-HD MA 5.1-TRexHD
Контейнер: MKV
Стандарт разрешения: 720p
Видео кодек: H.264/AVC
Аудио кодек: AC3
Видео: 1280x720 at 25.000 fps, ~6500 kbps avg
Аудио: Russian: 48 kHz, AC3, 3/2 (L,C,R,l,r) + LFE ch, ~384 kbps avg |Многоголосый закадровый, Синема Престиж|
Аудио #2: German: 48 kHz, AC3, 3/2 (L,C,R,l,r) + LFE ch, ~640 kbps avg
Cубтитры: Russian, English
Код:
Format                      : Matroska
Format version              : Version 4 / Version 2
File size                   : 2.77 GiB
Duration                    : 52mn 0s
Overall bit rate            : 7 630 Kbps
Movie name                  :  Das Boot (1985)
Encoded date                : UTC 2016-03-29 18:01:52
Writing application         : mkvmerge v8.2.0 ('World of Adventure') 64bit
Writing library             : libebml v1.3.1 + libmatroska v1.4.2
Attachements                : cover.jpg
DURATION                    : 00:52:00.448000000
NUMBER_OF_FRAMES            : 97514
NUMBER_OF_BYTES             : 149781504
_STATISTICS_WRITING_APP     : mkvmerge v8.2.0 ('World of Adventure') 64bit
_STATISTICS_WRITING_DATE_UT : 2016-03-29 18:01:52
_STATISTICS_TAGS            : BPS DURATION NUMBER_OF_FRAMES NUMBER_OF_BYTES
Video
ID                          : 1
Format                      : AVC
Format/Info                 : Advanced Video Codec
Format profile              : [email protected]
Format settings, CABAC      : Yes
Format settings, ReFrames   : 9 frames
Codec ID                    : V_MPEG4/ISO/AVC
Duration                    : 52mn 0s
Bit rate                    : 6 454 Kbps
Width                       : 1 280 pixels
Height                      : 720 pixels
Display aspect ratio        : 16:9
Frame rate mode             : Constant
Frame rate                  : 25.000 fps
Color space                 : YUV
Chroma subsampling          : 4:2:0
Bit depth                   : 8 bits
Scan type                   : Progressive
Bits/(Pixel*Frame)          : 0.280
Stream size                 : 2.34 GiB (85%)
Title                       : Release for HDCLUB
Writing library             : x264 core 133 r2334 a3ac64b
Encoding settings           : cabac=1 / ref=9 / deblock=1:-3:-3 / analyse=0x3:0x133 / me=tesa / subme=10 / psy=1 / psy_rd=0.95:0.00 / mixed_ref=1 / me_range=16 / chroma_me=1 / trellis=2 / 8x8dct=1 / cqm=0 / deadzone=21,11 / fast_pskip=0 / chroma_qp_offset=-2 / threads=12 / lookahead_threads=2 / sliced_threads=0 / nr=0 / decimate=0 / interlaced=0 / bluray_compat=0 / constrained_intra=0 / bframes=8 / b_pyramid=2 / b_adapt=2 / b_bias=0 / direct=3 / weightb=1 / open_gop=0 / weightp=2 / keyint=250 / keyint_min=25 / scenecut=40 / intra_refresh=0 / rc_lookahead=60 / rc=crf / mbtree=0 / crf=16.5 / qcomp=0.65 / qpmin=0 / qpmax=69 / qpstep=4 / vbv_maxrate=50000 / vbv_bufsize=62500 / crf_max=0.0 / nal_hrd=none / ip_ratio=1.10 / pb_ratio=1.10 / aq=1:0.65
Language                    : German
Default                     : Yes
Forced                      : No
Matrix coefficients         : BT.709
Color range                 : Limited
DURATION                    : 00:52:00.480000000
NUMBER_OF_FRAMES            : 78012
NUMBER_OF_BYTES             : 2575452479
_STATISTICS_WRITING_APP     : mkvmerge v8.2.0 ('World of Adventure') 64bit
_STATISTICS_WRITING_DATE_UT : 2016-03-29 18:01:52
_STATISTICS_TAGS            : BPS DURATION NUMBER_OF_FRAMES NUMBER_OF_BYTES
Audio #1
ID                          : 2
Format                      : AC-3
Format/Info                 : Audio Coding 3
Mode extension              : CM (complete main)
Format settings, Endianness : Big
Codec ID                    : A_AC3
Duration                    : 52mn 0s
Bit rate mode               : Constant
Bit rate                    : 384 Kbps
Channel(s)                  : 6 channels
Channel positions           : Front: L C R, Side: L R, LFE
Sampling rate               : 48.0 KHz
Bit depth                   : 16 bits
Compression mode            : Lossy
Stream size                 : 143 MiB (5%)
Title                       : MVO
Language                    : Russian
Default                     : Yes
Forced                      : No
Audio #2
ID                          : 3
Format                      : AC-3
Format/Info                 : Audio Coding 3
Mode extension              : CM (complete main)
Format settings, Endianness : Big
Codec ID                    : A_AC3
Duration                    : 52mn 0s
Bit rate mode               : Constant
Bit rate                    : 640 Kbps
Channel(s)                  : 6 channels
Channel positions           : Front: L C R, Side: L R, LFE
Sampling rate               : 48.0 KHz
Bit depth                   : 16 bits
Compression mode            : Lossy
Stream size                 : 238 MiB (8%)
Title                       : [email protected]
Language                    : German
Default                     : Yes
Forced                      : No
Text #1
ID                          : 4
Format                      : UTF-8
Codec ID                    : S_TEXT/UTF8
Codec ID/Info               : UTF-8 Plain Text
Language                    : Russian
Default                     : No
Forced                      : No
Text #2
ID                          : 5
Format                      : UTF-8
Codec ID                    : S_TEXT/UTF8
Codec ID/Info               : UTF-8 Plain Text
Language                    : English
Default                     : No
Forced                      : No
Menu
00:00:00.000                : en:00:00:00.000
00:10:55.200                : en:00:10:55.200
00:20:00.000                : en:00:20:00.000
00:30:00.520                : en:00:30:00.520
00:37:12.400                : en:00:37:12.400
00:46:20.280                : en:00:46:20.280
00:49:36.480                : en:00:49:36.480
Download / Скачать

Хотите скачать бесплатно? Зарегистрируйтесь на сайте (ссылка на регистрацию). Pirat.ca - самый быстрый торрент трекер в рунете!

Как скачивать  ·   Что такое торрент  ·   Рейтинг и ограничения

TERMOS ®

Легенда

12069

Пост 01-Апр-2016 14:03 (спустя 1 минута)

[Q] 

Сам фильм снят в 1981 году. А эта версия увидела свет в 1985-м.

_________________
[Профиль]  [ЛС] 

ExArH

Шкипер

14

Пост 03-Апр-2016 19:03 (спустя 2 дня 5 часов)

[Q] 

у тебя волосы в носу есть?
[Профиль]  [ЛС] 

TERMOS ®

Легенда

12069

Пост 03-Апр-2016 20:58 (спустя 1 час 55 минут)

[Q] 

ExArH, зацепило? Это к стилистам...)

_________________
[Профиль]  [ЛС] 
Показать сообщения:    
Ответить на тему

Текущее время: Сегодня 10:04

Часовой пояс: GMT + 4



Вы не можете начинать темы
Вы не можете отвечать на сообщения
Вы не можете редактировать свои сообщения
Вы не можете удалять свои сообщения
Вы не можете голосовать в опросах
Вы не можете прикреплять файлы к сообщениям
Вы не можете скачивать файлы

▼ Вниз