ML
     
  Уважаемый Гость!
Вы можете поддержать проект и зарегистрироваться у наших партнеров - онлайн-стратегия MyLands. При регистрации в игре Вы получите код, который сможете активировать после регистрации на pirat.ca и получить 1000 дублонов.

Ваш код:
a978488e62322cd72e113ab723b8a7fdc10eb9b9
 
     

Путь / The Path / Сезон 1 / Серии: 10 из 10 (Майк Кэхилл / Mike Cahill, ...) [2016 г., драма, ...WEBDLRip] MVO (OMSKBIRD records) + Original (Eng) [Финал сезона]

Ответить на тему
 
Автор
Сообщение

Пост 02-Апр-2016 00:35

[Q] 

kugesan

Путь / The Path ***- Страна: США
Год выпуска: 2016
Жанр: драма, ...-Озвучка: Студия
Перевод: Многоголосый закадровый, профессиональный
Оригинальный аудиопоток: английский-Релиз подготовил:Grandfather61
Роли озвучивали: Павел Ярощик, Алексей Воленко и Маргарита Сахно
Перевод: Евгений Гачинский
Звукорежиссер: Павел Квентов
Постер: Ксения Просветова
Сборка, работа со звуком, субтитрами: Grandfather61-Премьера (мир): 30 марта 2016-Режиссер: Майк Кэхилл / Mike Cahill, Майкл Уивер / Michael Weaver, ...
В главных ролях: Хью Дэнси, Аарон Пол, Кэтлин Тёрнер, Мишель Монахэн, Питер Фридман, Макс Эрих, Патрик Дарро, Эндрю С. Томпсон, Кайл Аллен, Брайан Росс Хьюс, Ханна Кэбелл, Рокмонд Данбар, Эми Форсайт, Эмма Гринвелл ...-Описание фильма:
Семья Лейн оказалась в эпицентре бурных событий вокруг культа, который возглавляет харизматичный Кэл Робертс (Хью Дэнси). Кэл запутывается в сложных отношениях с двумя другими членами своего спорного движения – красавицей Сарой и её мужем Эдди. По ходу действия Кэлу предстоит сразится с собственными демонами и непомерными амбициями в желании вывести свой культ на новый уровень.-Сезон: 1
Серии: 10 из 10 серий
Продолжительность: ~ 00:56:00 мин серия-Качество видео: WEBDLRip
Формат: AVI
Видеокодек: XviD
Аудиокодек: MP3
Видео: MPEG-4 Visual at 1505 Кбит/сек: 720 x 400 (1.800) at 23.976 fps, 0.22 Бит/Пиксели
Аудио Rus: MPEG Audio at 192 Кбит/сек, 2 канала, 48,0 КГц |OMSKBIRD records|
Аудио Eng: MPEG Audio at 192 Кбит/сек, 2 канала, 48,0 КГц |Original|
Cубтитры: Русские, Английские
Формат: SRT
- -
  • Что отбрасывает огонь (What the Fire Throws)
  • (The Era of The Way)
  • Возвращение (A Homecoming)
  • Будущее (The Future)
  • Яма (The Hole)
  • Взлом с проникновением (Breaking and Entering)
  • Беженцы (Refugees)
  • Причал (The Shore)
  • Комната с видом (A Room with a View)
  • Чудо (The Miracle)
-
Общее
Полное имя : E:\_Сериалы\_Сериалы\Путь\The.Path.S01.400p.WEBRip.OmskBird\The.Path.S01E01.WEBRip.OmskBird.avi
Формат : AVI
Формат/Информация : Audio Video Interleave
Размер файла : 769 Мбайт
Продолжительность : 56 м.
Общий поток : 1903 Кбит/сек
Программа кодирования : VirtualDubMod 1.5.10.3 (build 2550/release)
Библиотека кодирования : VirtualDubMod build 2550/release
Видео
Идентификатор : 0
Формат : MPEG-4 Visual
Профиль формата : Advanced [email protected]
Параметр BVOP формата : 1
Параметр QPel формата : Нет
Параметр GMC формата : Без точки перехода
Параметр матрицы формата : Default (MPEG)
Идентификатор кодека : XVID
Идентификатор кодека/Подсказка : XviD
Продолжительность : 56 м.
Битрейт : 1505 Кбит/сек
Ширина : 720 пикселей
Высота : 400 пикселей
Соотношение сторон : 16:9
Частота кадров : 23,976 (23976/1000) кадра/сек
Цветовое пространство : YUV
Субдискретизация насыщенности : 4:2:0
Битовая глубина : 8 бит
Тип развёртки : Прогрессивная
Метод сжатия : С потерями
Бит/(Пиксели*Кадры) : 0.218
Размер потока : 608 Мбайт (79%)
Библиотека кодирования : XviD 73
Аудио #1
Идентификатор : 1
Формат : MPEG Audio
Версия формата : Version 1
Профиль формата : Layer 3
Режим : Joint stereo
Расширение режима : MS Stereo
Идентификатор кодека : 55
Идентификатор кодека/Подсказка : MP3
Продолжительность : 56 м.
Вид битрейта : Постоянный
Битрейт : 192 Кбит/сек
Каналы : 2 канала
Частота : 48,0 КГц
Метод сжатия : С потерями
Размер потока : 77,6 Мбайт (10%)
Выравнивание : Соединение по промежуткам
Продолжительность промежутка : 42 мс. (1,00 видеокадр)
Время предзагрузки промежутка : 504 мс.
Аудио #2
Идентификатор : 2
Формат : MPEG Audio
Версия формата : Version 1
Профиль формата : Layer 3
Режим : Joint stereo
Расширение режима : MS Stereo
Идентификатор кодека : 55
Идентификатор кодека/Подсказка : MP3
Продолжительность : 56 м.
Вид битрейта : Постоянный
Битрейт : 192 Кбит/сек
Каналы : 2 канала
Частота : 48,0 КГц
Метод сжатия : С потерями
Размер потока : 77,6 Мбайт (10%)
Выравнивание : Соединение по промежуткам
Продолжительность промежутка : 42 мс. (1,00 видеокадр)
Время предзагрузки промежутка : 504 мс.
-
-Скриншоты:
-
-
Раздача ведётся путём добавления новых серий; при каждом добавлении создаётся новый торрент.
Чтобы начать докачку новой серии, пользователям необходимо сделать следующее:
1. остановить скачивание,
2. удалить старый торрент у себя из клиента (старые серии удалять не надо),
3. скачать новый торрент и запустить его у себя в клиенте вместо старого, при этом указать клиенту путь в старую папку, куда и должно происходить скачивание новых серий.
Ваш клиент при этом должен произвести хеширование (проверку) старой папки (если не производит сам - помогите ему сделать это), и будет докачивать только те серии которых у вас ещё нет. Старые серии при этом не удаляются, а продолжают раздаваться!
Eсли вы уже удалили старые серии, то предотвратить повторную закачку старых серий можно, отжав галочку в соответствующих местах при запуске нового торрента. По возможности, желательно не удалять старые серии как можно дольше, чтобы релизёр не столько продолжал раздавать старые серии, а смог сконцентрироваться на новых.
Совет для тех, кто не хочет ждать перехеширования:
Создайте ещё одну папку рядом с папкой сериала (рядом, а не в ней!!!). Каждую новую серию после удачной загрузки копируйте в новую папку так чтобы ваша основная папка всегда была пуста. Когда ваш новый торрент предложит вам закачать все файлы, выберете только последнюю. Для сидирования же укажите адрес новой папки.
Как закачать отдельный файл из торрента или докачать ранее пропущенные файлы торрента!
-
1. Открыть торрент
2. Снять галки с тех файлов торрента, которые мы не хотим закачивать. Оставляем только на нужных нам файлах (файле).
3. Нажать О.К.
В клиенте utorrent
Инструкция
1) Открыть торрент

2) Снять галки с тех файлов торрента, которые мы не хотим закачивать:
* либо вручную, снимая с каждого файла галку( скрин №1)
* либо, нажав кнопку "Снять метки (Select None)", сняв сразу со всех файлов(скрин №2)
№1

№2

Оставляем только на нужных нам файлах (файле).

3)Нажать О.К
-Добавлена десятая, заключительная, серия первого сезона-Приятного просмотра!!!-
Download / Скачать

Хотите скачать бесплатно? Зарегистрируйтесь на сайте (ссылка на регистрацию). Pirat.ca - самый быстрый торрент трекер в рунете!

Как скачивать  ·   Что такое торрент  ·   Рейтинг и ограничения



Последний раз редактировалось: kugesan (2016-05-29 00:32), всего редактировалось 11 раз(а)

kugesan ®

56686

Пост 29-Май-2016 00:33 (спустя 1 месяц 26 дней)

[Q] 

-Добавлена десятая, заключительная, серия первого сезона-Приятного просмотра!!!-

_________________

В мире две бесконечности: вселенная и человеческая глупость - Альберт Эйнштен
«Можно вытащить человека из грязи, но нельзя вытащить грязь из человека»!
[Профиль]  [ЛС] 

Пост 30-Май-2016 09:57 (спустя 1 день 9 часов)

Топик был перенесен из форума Сериалы в эфире в форум Зарубежные сериалы
Андря
 
Показать сообщения:    
Ответить на тему

Текущее время: Сегодня 22:10

Часовой пояс: GMT + 4



Вы не можете начинать темы
Вы не можете отвечать на сообщения
Вы не можете редактировать свои сообщения
Вы не можете удалять свои сообщения
Вы не можете голосовать в опросах
Вы не можете прикреплять файлы к сообщениям
Вы не можете скачивать файлы

▼ Вниз