ML
     
  Уважаемый Гость!
Вы можете поддержать проект и зарегистрироваться у наших партнеров - онлайн-стратегия MyLands. При регистрации в игре Вы получите код, который сможете активировать после регистрации на pirat.ca и получить 1000 дублонов.

Ваш код:
ca44e9295b9b8527ba1c339c20494f70782efea6
 
     

Гримм / Grimm / Сезон: 5 / Серии: 1-22 (22) (Норберто Барба / Norberto Barba, ...) [2015 г., ужасы, фэнтези, драма, WEB-DL, 720p] MVO (LostFilm) + Original (Eng) + Sub (Eng)

Ответить на тему
 
Автор
Сообщение

Пост 05-Апр-2016 18:17

[Q] 

TERMOS

Легенда

-Гримм / Grimm
«Not your usual suspects»
(5 сезон)
-- Производство: США
Жанр: ужасы, фэнтези, драма
Год выпуска: 2015 г.
Продолжительность: 22x ~00:43:00
Перевод: Профессиональный (многоголосый, закадровый) [LostFilm]
Оригинальный аудиопоток: английский
Режиссер: Норберто Барба / Norberto Barba, Терренс О’Хара / Terrence O'Hara, Эрик Ланёвилль / Eric Laneuville, ...-В ролях: Дэвид Джунтоли, Битси Таллоч, Сайлас Уэйр Митчелл, Расселл Хорнсби, Саша Ройз, Регги Ли, Клэр Коффи, Бри Тёрнер, Роберт Бланш, Дэнни Бруно-Описание: Действие происходит в современном Портленде, где детектив из отдела убийств узнаёт, что он является потомком группы охотников, известных как «Гриммы», которые сражаются, чтобы сохранить человечество в безопасности от сверхъестественных существ. Узнав о своей судьбе, и том, что он является последним из своего рода, он должен защитить каждую живую душу от зловещих персонажей сборника сказок, которые проникли в реальный мир.
- - -Качество видео: WEB-DL
Контейнер: MKV
Стандарт разрешения: 720p
Видео кодек: H.264/AVC
Аудио кодек: AC3
Видео: 1280x720 at 23.976 fps, ~4000 kbps avg
Аудио: Russian: 48 kHz, AC3, 3/2 (L,C,R,l,r) + LFE ch, ~384.00 kbps avg |Многоголосый закадровый, LostFilm|
Аудио #2: English: 48 kHz, AC3, 3/2 (L,C,R,l,r) + LFE ch, ~384.00 kbps avg
Cубтитры: английские
01. The Grimm Identity / Идентификация Гримма
02. Clear and Wesen Danger / Прямая и существенная угроза
03. Lost Boys / Пропавшие детки
04. Maiden Quest / Дева в награду
05. Rat King / Крысиный король
06. Wesen Nacht / Ночь существ
07. Eve of Destruction / Ева-разрушительница
08. A Reptile Dysfunction / Рептильная дисфункция
09. Star-Crossed / Несчастливые звёзды
10. Map of the Seven Knights / Карта семи рыцарей
11. Key Move / Ключевой ход
12. Into the Schwarzwald / В Шварцвальде
13. Silence of the Slams / Молчание масок
14. Lycanthropia / Ликантропия
15. Skin Deep / Внешность обманчива
16. The Believer / Верующий
17. Inugami / Инугами
18. Good to the Bone / Хорош до костей
19. The Taming of the Wu / Укрощение Ву
20. Bad Night / Плохая ночь
21. Set Up / Структура
22. The Beginning of the End / Начало конца
Код:
Format                      : Matroska
Format version              : Version 4 / Version 2
File size                   : 1.43 GiB
Duration                    : 42mn 58s
Overall bit rate            : 4 769 Kbps
Movie name                  : Grimm 5x01 (2015) - Release kmarats for HDCLUB
Encoded date                : UTC 2015-11-13 13:52:24
Writing application         : mkvmerge v7.9.0 ('Birds') 64bit
Writing library             : libebml v1.3.1 + libmatroska v1.4.2
Video
ID                          : 1
Format                      : AVC
Format/Info                 : Advanced Video Codec
Format profile              : [email protected]
Format settings, CABAC      : No
Format settings, ReFrames   : 2 frames
Codec ID                    : V_MPEG4/ISO/AVC
Duration                    : 42mn 58s
Bit rate                    : 3 906 Kbps
Width                       : 1 280 pixels
Height                      : 720 pixels
Display aspect ratio        : 16:9
Frame rate mode             : Constant
Frame rate                  : 23.976 fps
Color space                 : YUV
Chroma subsampling          : 4:2:0
Bit depth                   : 8 bits
Scan type                   : Progressive
Bits/(Pixel*Frame)          : 0.177
Stream size                 : 1.17 GiB (82%)
Title                       : Grimm 5x01 (2015) - Release kmarats for HDCLUB
Language                    : English
Default                     : Yes
Forced                      : No
Color primaries             : BT.709
Transfer characteristics    : BT.709
Matrix coefficients         : BT.709
Color range                 : Limited
Audio #1
ID                          : 2
Format                      : AC-3
Format/Info                 : Audio Coding 3
Mode extension              : CM (complete main)
Format settings, Endianness : Big
Codec ID                    : A_AC3
Duration                    : 42mn 58s
Bit rate mode               : Constant
Bit rate                    : 384 Kbps
Channel(s)                  : 6 channels
Channel positions           : Front: L C R, Side: L R, LFE
Sampling rate               : 48.0 KHz
Bit depth                   : 16 bits
Compression mode            : Lossy
Stream size                 : 118 MiB (8%)
Title                       : LostFilm
Language                    : Russian
Default                     : Yes
Forced                      : No
Audio #2
ID                          : 3
Format                      : AC-3
Format/Info                 : Audio Coding 3
Mode extension              : CM (complete main)
Format settings, Endianness : Big
Codec ID                    : A_AC3
Duration                    : 42mn 58s
Bit rate mode               : Constant
Bit rate                    : 384 Kbps
Channel(s)                  : 6 channels
Channel positions           : Front: L C R, Side: L R, LFE
Sampling rate               : 48.0 KHz
Bit depth                   : 16 bits
Compression mode            : Lossy
Stream size                 : 118 MiB (8%)
Title                       : English
Language                    : English
Default                     : No
Forced                      : No
Text
ID                          : 4
Format                      : UTF-8
Codec ID                    : S_TEXT/UTF8
Codec ID/Info               : UTF-8 Plain Text
Title                       : eng-sub
Language                    : English
Default                     : No
Forced                      : No
Download / Скачать

Хотите скачать бесплатно? Зарегистрируйтесь на сайте (ссылка на регистрацию). Pirat.ca - самый быстрый торрент трекер в рунете!

Как скачивать  ·   Что такое торрент  ·   Рейтинг и ограничения



Последний раз редактировалось: TERMOS (2016-06-06 21:25), всего редактировалось 4 раз(а)

TERMOS ®

Легенда

11994

Пост 12-Апр-2016 21:11 (спустя 7 дней)

[Q] 

Добавлена 16-я серия. Обновите торрент-файл!

_________________
[Профиль]  [ЛС] 

TERMOS ®

Легенда

11994

Пост 19-Апр-2016 20:39 (спустя 6 дней)

[Q] 

Добавлена 17-я серия. Обновите торрент-файл!

_________________
[Профиль]  [ЛС] 

TERMOS ®

Легенда

11994

Пост 27-Апр-2016 20:28 (спустя 7 дней)

[Q] 

Добавлена 18-я серия. Обновите торрент-файл!

_________________
[Профиль]  [ЛС] 

TERMOS ®

Легенда

11994

Пост 03-Май-2016 16:10 (спустя 5 дней)

[Q] 

Добавлена 19-я серия. Обновите торрент-файл!

_________________
[Профиль]  [ЛС] 

TERMOS ®

Легенда

11994

Пост 06-Июн-2016 21:26 (спустя 1 месяц 3 дня)

[Q] 

Добавлены 20-22 серии. Финал сезона! Обновите торрент-файл!

_________________
[Профиль]  [ЛС] 

Пост 06-Июн-2016 21:53 (спустя 27 минут)

Топик был перенесен из форума Сериалы в эфире в форум Зарубежные сериалы
Андря
 
Показать сообщения:    
Ответить на тему

Текущее время: Сегодня 16:15

Часовой пояс: GMT + 4



Вы не можете начинать темы
Вы не можете отвечать на сообщения
Вы не можете редактировать свои сообщения
Вы не можете удалять свои сообщения
Вы не можете голосовать в опросах
Вы не можете прикреплять файлы к сообщениям
Вы не можете скачивать файлы

▼ Вниз