ML
     
  Уважаемый Гость!
Вы можете поддержать проект и зарегистрироваться у наших партнеров - онлайн-стратегия MyLands. При регистрации в игре Вы получите код, который сможете активировать после регистрации на pirat.ca и получить 1000 дублонов.

Ваш код:
e93cd9e43017f251127f220889864c05934e61c6
 
     

Череп и кости / Crossbones / Сезон: 1 из 1 / Серии: 1-9 из 9 (Дэниэл Эттиэс / Daniel Attias...) [2014 г., драма, приключения, WEB-DLRip] MVO (LostFilm)

Ответить на тему
 
Автор
Сообщение

Пост 10-Апр-2016 19:54

[Q] 

somik

Легенда

-Череп и кости / Crossbones-- Производство: США, Mr. Cross, P + M Image Nation, Universal Television
Жанр: драма, приключения
Год выпуска: 2014 г.
Продолжительность: 00:50:00
Мировая премьера: 30 мая 2014
Перевод: Профессиональный (многоголосый, закадровый) [LostFilm]
Режиссер: Дэниэл Эттиэс / Daniel Attias...-В ролях: Джон Малкович, Трэйси Айфичор, Ясмин Эл Массри, Дэвид Хофлин, Эзра Баззингтон, Лорен Шоу, Джулиан Сэндс, Натали Блэр, Генри Херфорд, Айми Маллинз и др.-Описание: Шпионская история, которая разворачивается в декорациях одной секретной пиратской республики, расположенной на живописных Багамских островах. В этом райском уголке правит жестокий харизматичный пират Черная борода — настоящий морской волк, о котором ходят самые страшные слухи. Но он еще не знает, какой сюрприз приготовили ему власти Британии…-
Качество видео: WEB-DLRip
Контейнер: AVI
Видео кодек: XviD
Аудио кодек: MP3
Видео: Video: 720x400 (1.80:1), 23.976 fps, XviD MPEG-4 ~1289 kbps avg, 0.19 bit/pixel
Аудио: Audio: 48 kHz, MPEG Layer 3, 2 ch, ~188.52 kbps avg
Cубтитры: отсутствуют
Очередной крутой пиратский сериал
Отличный сериал! Очень интересный и динамичный!
Прежде всего главную роль в нём исполнил актёр Джон Малкович, как и следовало ожидать он был неподражаем в роли пирата
Всем кто смотрел Черные паруса (Black Sails) наверняка понравится, хотя следует отметить что сериалы все таки абсолютно разные:
В случае с «Чёрными парусами» перед нами предстала разговорная, неторопливая и жестокая драма, рассказывающая предысторию всем известного «Острова сокровищ».
В основу «Черепа и костей» легла легенда о пирате по кличке Чёрная Борода, в миру известного как Эдвард Тич. Жестокости здесь чуть меньше, но она всё же есть. Тренд, случившийся после «Пиратов Карибского моря», которые стали самой главной семейной сагой последних 15 лет, теперь представляет зрителю других пиратов.
Сюжет этого проекта завязан на приключениях. Главным злодеем здесь является упомянутый Эдвард Тич. Своими дерзкими набегами на торговые суда он мешает ведению бизнеса в районе Багамских островов. Единственный вариант решения проблемы — убить пирата. Для этого король подсылает к Чёрной Бороде своего шпиона-киллера — находчивого Томаса Лоу (в исполнении Ричард Койла)
Вообще, сериал «Черепа и костей» — это проект канала NBC, который ставится по задумки Нила Кросса, до того ставшего автором идеи для сериала «Лютер»
Подытоживаем…
8 из 10
Формат : AVI
Формат/Информация : Audio Video Interleave
Размер файла : 538 Мбайт
Продолжительность : 50 м.
Режим общего битрейта : Переменный
Общий поток : 1492 Кбит/сек
Программа кодирования : Nandub v1.0rc2
Библиотека кодирования : Nandub build 1853/release
Видео
Идентификатор : 0
Формат : MPEG-4 Visual
Профиль формата : [email protected]
Параметр BVOP формата : Нет
Параметр QPel формата : Нет
Параметр GMC формата : Без точки перехода
Параметр матрицы формата : Default (H.263)
Идентификатор кодека : XVID
Идентификатор кодека/Подсказка : XviD
Продолжительность : 50 м.
Битрейт : 1290 Кбит/сек
Ширина : 720 пикселей
Высота : 400 пикселей
Соотношение сторон : 16:9
Частота кадров : 23,976 (23976/1000) кадра/сек
Цветовое пространство : YUV
Субдискретизация насыщенности : 4:2:0
Битовая глубина : 8 бит
Тип развёртки : Прогрессивная
Метод сжатия : С потерями
Бит/(Пиксели*Кадры) : 0.187
Размер потока : 466 Мбайт (87%)
Библиотека кодирования : XviD 1.2.1 (UTC 2008-12-04)
Аудио
Идентификатор : 1
Формат : MPEG Audio
Версия формата : Version 1
Профиль формата : Layer 3
Режим : Joint stereo
Расширение режима : MS Stereo
Идентификатор кодека : 55
Идентификатор кодека/Подсказка : MP3
Продолжительность : 50 м.
Вид битрейта : Переменный
Битрейт : 192 Кбит/сек
Каналы : 2 канала
Частота : 48,0 КГц
Метод сжатия : С потерями
Размер потока : 68,0 Мбайт (13%)
Выравнивание : Соединение по промежуткам
Продолжительность промежутка : 24 мс. (0,58 видеокадр)
Время предзагрузки промежутка : 484 мс.
Библиотека кодирования : LAME3.97b
Настройки программы : -m j -V 4 -q 3 -lowpass 18.6 --abr 192
Download / Скачать

Хотите скачать бесплатно? Зарегистрируйтесь на сайте (ссылка на регистрацию). Pirat.ca - самый быстрый торрент трекер в рунете!

Как скачивать  ·   Что такое торрент  ·   Рейтинг и ограничения

Пост 10-Апр-2016 20:31 (спустя 37 минут)

Топик был перенесен из форума Зарубежные сериалы (Трюм) в форум Зарубежные сериалы
Андря
 
Показать сообщения:    
Ответить на тему

Текущее время: Сегодня 04:29

Часовой пояс: GMT + 4



Вы не можете начинать темы
Вы не можете отвечать на сообщения
Вы не можете редактировать свои сообщения
Вы не можете удалять свои сообщения
Вы не можете голосовать в опросах
Вы не можете прикреплять файлы к сообщениям
Вы не можете скачивать файлы

▼ Вниз