ML
     
  Уважаемый Гость!
Вы можете поддержать проект и зарегистрироваться у наших партнеров - онлайн-стратегия MyLands. При регистрации в игре Вы получите код, который сможете активировать после регистрации на pirat.ca и получить 1000 дублонов.

Ваш код:
8b752b428cf60a012c159dcae592cd1392170115
 
     

Эпоха дракона: Искупление (мини-сериал) / Dragon Age: Redemption (Питер Уинтер / Peter Winther) [2011 г., фэнтези, боевик, приключения, HDRip] [6 серий по 9 минут скомпанованные в одну] DVO

Ответить на тему
 
Автор
Сообщение

Пост 11-Апр-2016 03:11

[Q] 

somik

Легенда

-Эпоха дракона: Искупление (мини-сериал) / Dragon Age: Redemption / 6 серий по 9 минут скомпанованные в одну-- Производство: США, Knights of Good Productions, Tallis Productions, Спецэффекты: Flash Film Works
Год выпуска: 2011 г.
Жанр: фэнтези, боевик, приключения
Продолжительность: 00:50:46
Мировая премьера: 11 октября 2011
Перевод: Профессиональный (двухголосый, закадровый) [NovaFilm (pozakazu.tv)]
Режиссер: Питер Уинтер / Peter Winther-В ролях: Масам Холден, Марсия МакКой-Джонс, Фелиша Дэй, Адам Рэйнер, Даг Джонс, Том Уильямс, Анна Кэмпбелл, Эрик Кэмпбелл, Марисса Куэвас, Дженнифер Флатебо-Описание: «Dragon Age: Искупление» представляет собой веб-сериал по мотивам серии игр Dragon Age от BioWare. Первая игра серии «Dragon Age: Начало» появилась в 2009 году. Игрокам предстояло окунуться в страшное противостояние объединенных сил людей, эльфов, гномов и кунари с порождниями тьмы — извращенными созданиями скверны. Игра стала невероятно популярной, что неизбежно привело к созданию второй части.
Действие веб сериала «Dragon Age: Искупление» происходит во время событий второй части игры. В главной роли — Фелиция Дэй, создательница и актриса знаменитого веб-сериала «Гильдия». Фелиция сыграла роль эльфийской наемницы Таллис, которая выслеживает сбежавшего мага кунари.-
Качество видео: HDRip
Контейнер: AVI
Видео кодек: XviD
Аудио кодек: MP3
Видео: Video: 1280x720 (1.78:1), 23.976 fps, XviD build 50 ~3696 kbps avg, 0.17 bit/pixel
Аудио: Audio: 48 kHz, MPEG Layer 3, 2 ch, ~320.00 kbps avg
Cубтитры: отсутствуют
Формат : AVI
Формат/Информация : Audio Video Interleave
Профиль формата : OpenDML
Размер файла : 1,43 Гбайт
Продолжительность : 50 м.
Общий поток : 4023 Кбит/сек
Название фильма : Dragon Age: Redemption (2011)
Программа кодирования : Lavf52.94.0
Примечание : www.freemake.com
Видео
Идентификатор : 0
Формат : xvid
Идентификатор кодека : xvid
Продолжительность : 50 м.
Битрейт : 3689 Кбит/сек
Ширина : 1280 пикселей
Высота : 720 пикселей
Соотношение сторон : 16:9
Частота кадров : 23,976 кадра/сек
Тип развёртки : Прогрессивная
Бит/(Пиксели*Кадры) : 0.167
Размер потока : 1,31 Гбайт (92%)
Аудио
Идентификатор : 1
Формат : MPEG Audio
Версия формата : Version 1
Профиль формата : Layer 3
Режим : Joint stereo
Расширение режима : MS Stereo
Идентификатор кодека : 55
Идентификатор кодека/Подсказка : MP3
Продолжительность : 50 м.
Вид битрейта : Постоянный
Битрейт : 320 Кбит/сек
Каналы : 2 канала
Частота : 48,0 КГц
Метод сжатия : С потерями
Размер потока : 116 Мбайт (8%)
Выравнивание : Соединение по промежуткам
Продолжительность промежутка : 24 мс. (0,58 видеокадр)
Библиотека кодирования : LAME3.98.4
Download / Скачать

Хотите скачать бесплатно? Зарегистрируйтесь на сайте (ссылка на регистрацию). Pirat.ca - самый быстрый торрент трекер в рунете!

Как скачивать  ·   Что такое торрент  ·   Рейтинг и ограничения

Пост 11-Апр-2016 09:35 (спустя 6 часов)

Топик был перенесен из форума Зарубежные сериалы (Трюм) в форум Зарубежные сериалы
Андря
 

kloctuk

3298

Пост 11-Апр-2016 12:36 (спустя 9 часов)

[Q] 

Премного! Спасибо!!!

_________________
-выстрели еще разок. -зачем? - его душа еще танцует...
[Профиль]  [ЛС] 

somik ®

Легенда

26680

Пост 11-Апр-2016 15:45 (спустя 3 часа)

[Q] 

Я уже пытался: уж очень хорошая сказка для детей. Но что-то напортачил и качество убил. Но решил: - детям надо!.. и добился. aa

_________________
Всё когда-нибудь уже было... В интернете!
[Профиль]  [ЛС] 

li_stitch

Корсар

Пост 15-Апр-2016 00:46 (спустя 3 дня)

[Q] 

Спасибо!!! На любителя
[Профиль]  [ЛС] 
Показать сообщения:    
Ответить на тему

Текущее время: Сегодня 06:18

Часовой пояс: GMT + 4



Вы не можете начинать темы
Вы не можете отвечать на сообщения
Вы не можете редактировать свои сообщения
Вы не можете удалять свои сообщения
Вы не можете голосовать в опросах
Вы не можете прикреплять файлы к сообщениям
Вы не можете скачивать файлы

▼ Вниз