ML
     
  Уважаемый Гость!
Вы можете поддержать проект и зарегистрироваться у наших партнеров - онлайн-стратегия MyLands. При регистрации в игре Вы получите код, который сможете активировать после регистрации на pirat.ca и получить 1000 дублонов.

Ваш код:
e6008d9811a0b6a1393c3dc51ecd7bc35637bc21
 
     

Гранчестер / Grantchester / Сезон: 1 из 3 / Серии: 1-6 из 6 (Тим Файвелл / Tim Fywell...) [2014 г., драма, детектив, HDTVRip] DVO (VictoryFilms)

Ответить на тему
 
Автор
Сообщение

Пост 14-Апр-2016 13:07

[Q] 

somik

Легенда

-Гранчестер / Grantchester-- Производство: Великобритания, Lovely Day
Жанр: драма, детектив
Год выпуска: 2014 г.
Продолжительность: 00:45:00
Мировая премьера: 6 октября 2014
Перевод: Любительский (двухголосый, закадровый) [VictoryFilms]
Режиссер: Тим Файвелл / Tim Fywell...-В ролях: Джеймс Нортон, Робсон Грин, Морвен Кристи, Тесса Пик-Джонс, Аль Уивер, Том Остин, Грегг Лоу, Фелина Рогган, Кейси Эйнсуорт, Крис Бирн-Описание: Действие происходит в 1953 году в живописной деревушке Гранчестер в Кембриджшире. Главный герой — Сидни Чемберс, харизматичный и очаровательный викарий,
который начинает собственное расследование, когда один из его прихожан умирает при подозрительных обстоятельствах.-
Качество видео: HDTVRip
Контейнер: AVI
Видео кодек: XviD
Аудио кодек: MP3
Видео: Video: 720x400 (1.80:1), 25 fps, XviD build 64 ~1178 kbps avg, 0.16 bit/pixel
Аудио: Audio: 48 kHz, MPEG Layer 3, 2 ch, ~192.00 kbps avg
Cубтитры: отсутствуют
Гранчестер (англ. Grantchester) — деревня (village) на реке Кам в графстве Кембриджшир в Англии, недалеко от Кембриджа.
Считается, что Гранчестер имеет самую высокую в мире «концентрацию» Нобелевских лауреатов, большинство из них связано с находящимся неподалеку Кембриджским университетом
Английская глубинка в год смерти товарища Сталина. Бывший фронтовик Сидней Чэмберс возглавляет местный приход, и будоражит сознание прихожан и особенно прихожанок. Сидней молод, хорош собой, задумчив (что наводит на мысль о какой — то тайне), и отчаянно одинок. Одного из прихожан обнаруживают с простреленной головой, и пистолетом в руке. Полиция считает покойного самоубийцей, и закрывает дело. Сидней сомневается в правильности выводов полиции, и начинает собственное расследование…
Чэмберс — викарий необычный. Слишком многое связывает его с мирской жизнью. Для священнослужителя, он слишком живо интересуется женщинами (правда без особого результата), а его единственным, и верным спутником является массивный стакан виски. Скептицизм и наблюдательность позволяют ему раскрывать запутанные дела (создатели фильма не мелочатся, каждая серия представляет собой полновесное дело об убийстве, английская провинция — очень опасное место). Сидни составляет детективный дуэт с полицейским Китингом, который поначалу отвергает молодого священника и его идеи, но (как это обычно бывает в детективных фильмах), постепенно проникается уважением к проницательному юнцу.
«Гранчестер» — изящная стилизация, воздушная, лёгкая (несмотря на трупы), очень стильная. Музыка, причёски, автомобили — всё воссоздано с большим старанием и любовью. Поскольку действие происходит в провинции, картинка позволяет насладится прекрасной английской природой. Отлично прописанные диалоги заставляют ловить каждое слово, произнесённое с экрана.
- Тебе не кажется, что у нас проблемы с алкоголем?
- Кажется. Он у нас закончился.
Сидни Чэмберса играет Джеймс Нортон, для человека из высшего света у него слишком пролетарские скулы, и чрезмерно развитые жевательные мышцы. Чэмберс в его исполнении — человек страдающий, он безнадёжно влюблён в Аманду (Морвен Кристи). Аманда играет с ним в обычную женскую игру (дам, но не вам), из фильма не совсем понятно, успел ли Сидни вкусить запретного плода, но надежда его не оставляет. В тот момент, когда он готов к чему — то большему, чем совместное поедание чипсов, Аманда объявляет о замужестве с симпатичным, но абсолютно пустым (как наполненное аргоном изделие номер 2) аристократом Гаем Хопкинсом (Том Остин). Удастся ли Сидни вернуть любовь Аманды?
Полицейского Китинга играет Робсон Грин, хорошо знакомый тем, кто любит сериал по произведениям Вэл Макдерминд «Тугая струна». От сдержанности и самообладания доктора Хилла, здесь не осталось и следа. Китинг в его исполнении вспыльчив и нетерпим. В то время, как Чэмберс погружён в меланхолию, и оживляется только при виде свежего трупа. Грин и Нортон отлично дополняют друг друга, и помимо расследования убийств, они занимаются популяризацией игры в нарды. Нельзя не упомянуть блестящую роль Тессы Пик — Джонс (миссис Магуаир, домохозяйка Чэмберса). Она набожна, занудна, и прекрасна в своей мизантропии. Её излюбленная фраза — какого хереса? (вольный перевод с английского — what a dickkens?). Несомненно, она — украшение фильма.
Итог.
Блестящий, остроумный, увлекательный детективный сериал. Абсолютно нетривиальные преступления, неожиданные сюжетные ходы. Фильм адресован поклонникам классического английского детектива.
10 из 10
Формат : AVI
Формат/Информация : Audio Video Interleave
Размер файла : 455 Мбайт
Продолжительность : 45 м.
Общий поток : 1384 Кбит/сек
Программа кодирования : Lavf54.63.104
Видео
Идентификатор : 0
Формат : xvid
Идентификатор кодека : xvid
Продолжительность : 45 м.
Битрейт : 1179 Кбит/сек
Ширина : 720 пикселей
Высота : 400 пикселей
Соотношение сторон : 16:9
Частота кадров : 25,000 кадров/сек
Тип развёртки : Прогрессивная
Бит/(Пиксели*Кадры) : 0.164
Размер потока : 388 Мбайт (85%)
Аудио
Идентификатор : 1
Формат : MPEG Audio
Версия формата : Version 1
Профиль формата : Layer 3
Режим : Joint stereo
Расширение режима : MS Stereo
Идентификатор кодека : 55
Идентификатор кодека/Подсказка : MP3
Продолжительность : 45 м.
Вид битрейта : Постоянный
Битрейт : 192 Кбит/сек
Каналы : 2 канала
Частота : 48,0 КГц
Метод сжатия : С потерями
Размер потока : 63,1 Мбайт (14%)
Выравнивание : Соединение по промежуткам
Продолжительность промежутка : 24 мс. (0,60 видеокадр)
Download / Скачать

Хотите скачать бесплатно? Зарегистрируйтесь на сайте (ссылка на регистрацию). Pirat.ca - самый быстрый торрент трекер в рунете!

Как скачивать  ·   Что такое торрент  ·   Рейтинг и ограничения

somik ®

Легенда

26972

Пост 14-Апр-2016 13:10 (спустя 2 минуты)

[Q] 

Если Вы чаете видеть в детективе детективные сюжеты, нетривиальные и интересные конфликты, хорошие (действительно хорошие, крепкие) сценарные и актерские работы, то «Гранчестер» для Вас. На любителя

_________________
Всё когда-нибудь уже было... В интернете!
[Профиль]  [ЛС] 

Пост 14-Апр-2016 14:00 (спустя 50 минут)

Топик был перенесен из форума Зарубежные сериалы (Трюм) в форум Зарубежные сериалы
kugesan
 
Показать сообщения:    
Ответить на тему

Текущее время: Сегодня 02:03

Часовой пояс: GMT + 4



Вы не можете начинать темы
Вы не можете отвечать на сообщения
Вы не можете редактировать свои сообщения
Вы не можете удалять свои сообщения
Вы не можете голосовать в опросах
Вы не можете прикреплять файлы к сообщениям
Вы не можете скачивать файлы

▼ Вниз