ML
     
  Уважаемый Гость!
Вы можете поддержать проект и зарегистрироваться у наших партнеров - онлайн-стратегия MyLands. При регистрации в игре Вы получите код, который сможете активировать после регистрации на pirat.ca и получить 1000 дублонов.

Ваш код:
5f4e94775bc0501caff7b254e79328d304c817d9
 
     

Бойтесь ходячих мертвецов / Fear the Walking Dead / Сезон: 2 / Серии: 15 из 15 (Адам Дэвидсон, Кари Скогланд, Стефан Шварц) [2016, ужасы, драма, WEBRip] MVO (LostFilm) [финал сезона]

Ответить на тему
 
Автор
Сообщение

Пост 14-Апр-2016 16:53

[Q] 

kugesan

Бойтесь ходячих мертвецов / Fear the Walking Dead
«Fear begins here»
- Производство: США
Год выпуска: 2016
Жанр: ужасы, драма, ...-Озвучка: Студия
Перевод: Многоголосый закадровый, профессиональный-Премьера (мир): 23 августа 2015, ...
Премьера (РФ): 24 августа 2015-Режиссер: Адам Дэвидсон / Adam Davidson, Кари Скогланд / Kari Skogland, Стефан Шварц / Stefan Schwartz, ...
В главных ролях: Клифф Кёртис, Ким Диккенс, Алисия Дебнем-Кери, Фрэнк Диллэйн, Рубен Бладес, Мерседес Масон, Колман Доминго, Лоренцо Джеймс Хенри, Элизабет Родригес, Тони Френч ...-Описание фильма:
Действия сериала происходят параллельно с событиями зомби-апокалипсиса, показанными в сериале «Ходячие мертвецы», но в совершенно другом месте — Лос-Анджелесе. Акцент будет сделан на семейные отношения, в частности, проблемы отцов и детей. История вращается вокруг Шона — разведённого школьного учителя и Нэнси руководительницы женского совета. А так же детей Нэнси: Ника, который борется с наркотической зависимостью и амбициозной дочери Эшли.-Серии: 15 из 15 серий
Продолжительность: ~ 00:42:00 мин серия-
Качество видео: WEBRip
Контейнер: AVI
Видео кодек: XviD
Аудио кодек: MP3
Видео: MPEG-4 Visual at 1705 Кбит/сек: 720 x 400 (1.800) at 23.976 fps: 0.25 Бит/Пиксели
Аудио Rus: MPEG Audio at 192 Кбит/сек: 2 канала, 48,0 КГц |LostFilm|
Cубтитры: отсутствуют
- -
  • Монстр (Monster)
  • И мы все падём (We All Fall Down)
  • Уроборос (Ouroboros)
  • Улицы в крови (Blood in the Streets)
  • Пленник (Captive)
  • Как лань (Sicut Cervus)
  • Шива (Shiva)
  • Гротеск (Grotesque)
  • Мертвецы (Los Muertos)
  • Не беспокоить (Do Not Disturb)
  • Пабло и Джессика (Pablo & Jessica)
  • Соляной столп (Pillar of Salt)
  • Дата смерти (Date of Death)
  • Гнев (Wrath)
  • Север (North)
-
Общее
Полное имя : E:\_Сериалы\_Сериалы\Бойтесь ходячих мертвецов\Fear.the.Walking.Dead.S02.rus.LostFilm.TV\Fear.the.Walking.Dead.S02E01.rus.LostFilm.TV.avi
Формат : AVI
Формат/Информация : Audio Video Interleave
Размер файла : 585 Мбайт
Продолжительность : 42 м.
Режим общего битрейта : Переменный
Общий поток : 1903 Кбит/сек
Программа кодирования : Nandub v1.0rc2
Библиотека кодирования : Nandub build 1853/release
Видео
Идентификатор : 0
Формат : MPEG-4 Visual
Профиль формата : Advanced [email protected]
Параметр BVOP формата : Нет
Параметр QPel формата : Нет
Параметр GMC формата : Без точки перехода
Параметр матрицы формата : Default (H.263)
Идентификатор кодека : XVID
Идентификатор кодека/Подсказка : XviD
Продолжительность : 42 м.
Битрейт : 1705 Кбит/сек
Ширина : 720 пикселей
Высота : 400 пикселей
Соотношение сторон : 16:9
Частота кадров : 23,976 (23976/1000) кадра/сек
Цветовое пространство : YUV
Субдискретизация насыщенности : 4:2:0
Битовая глубина : 8 бит
Тип развёртки : Прогрессивная
Метод сжатия : С потерями
Бит/(Пиксели*Кадры) : 0.247
Размер потока : 524 Мбайт (90%)
Библиотека кодирования : XviD 1.2.1 (UTC 2008-12-04)
Аудио
Идентификатор : 1
Формат : MPEG Audio
Версия формата : Version 1
Профиль формата : Layer 3
Режим : Joint stereo
Расширение режима : MS Stereo
Идентификатор кодека : 55
Идентификатор кодека/Подсказка : MP3
Продолжительность : 42 м.
Вид битрейта : Переменный
Битрейт : 192 Кбит/сек
Каналы : 2 канала
Частота : 48,0 КГц
Метод сжатия : С потерями
Размер потока : 57,1 Мбайт (10%)
Выравнивание : Соединение по промежуткам
Продолжительность промежутка : 24 мс. (0,58 видеокадр)
Время предзагрузки промежутка : 447 мс.
Библиотека кодирования : LAME3.97b
Настройки программы : -m j -V 4 -q 3 -lowpass 18.6 --abr 192
-
-Скриншоты:
-
-
Раздача ведётся путём добавления новых серий; при каждом добавлении создаётся новый торрент.
Чтобы начать докачку новой серии, пользователям необходимо сделать следующее:
1. остановить скачивание,
2. удалить старый торрент у себя из клиента (старые серии удалять не надо),
3. скачать новый торрент и запустить его у себя в клиенте вместо старого, при этом указать клиенту путь в старую папку, куда и должно происходить скачивание новых серий.
Ваш клиент при этом должен произвести хеширование (проверку) старой папки (если не производит сам - помогите ему сделать это), и будет докачивать только те серии которых у вас ещё нет. Старые серии при этом не удаляются, а продолжают раздаваться!
Eсли вы уже удалили старые серии, то предотвратить повторную закачку старых серий можно, отжав галочку в соответствующих местах при запуске нового торрента. По возможности, желательно не удалять старые серии как можно дольше, чтобы релизёр не столько продолжал раздавать старые серии, а смог сконцентрироваться на новых.
Совет для тех, кто не хочет ждать перехеширования:
Создайте ещё одну папку рядом с папкой сериала (рядом, а не в ней!!!). Каждую новую серию после удачной загрузки копируйте в новую папку так чтобы ваша основная папка всегда была пуста. Когда ваш новый торрент предложит вам закачать все файлы, выберете только последнюю. Для сидирования же укажите адрес новой папки.
Как закачать отдельный файл из торрента или докачать ранее пропущенные файлы торрента!
-
1. Открыть торрент
2. Снять галки с тех файлов торрента, которые мы не хотим закачивать. Оставляем только на нужных нам файлах (файле).
3. Нажать О.К.
В клиенте utorrent
Инструкция
1) Открыть торрент

2) Снять галки с тех файлов торрента, которые мы не хотим закачивать:
* либо вручную, снимая с каждого файла галку( скрин №1)
* либо, нажав кнопку "Снять метки (Select None)", сняв сразу со всех файлов(скрин №2)
№1

№2

Оставляем только на нужных нам файлах (файле).

3)Нажать О.К
Добавлена пятнадцатая, заключительная, серия второго сезона-Приятного просмотра!!!-
Download / Скачать

Хотите скачать бесплатно? Зарегистрируйтесь на сайте (ссылка на регистрацию). Pirat.ca - самый быстрый торрент трекер в рунете!

Как скачивать  ·   Что такое торрент  ·   Рейтинг и ограничения



Последний раз редактировалось: kugesan (2016-10-10 23:47), всего редактировалось 16 раз(а)

li_stitch

Корсар

Пост 15-Апр-2016 00:24 (спустя 7 часов)

[Q] 

бррр... На любителя
[Профиль]  [ЛС] 

pdb08

Легенда

Пост 18-Май-2016 03:48 (спустя 1 месяц 3 дня)

[Q] 

Вообщем качаю! Скорость "вах" Автору респект!!!

_________________
[Профиль]  [ЛС] 
Показать сообщения:    
Ответить на тему

Текущее время: Сегодня 15:34

Часовой пояс: GMT + 4



Вы не можете начинать темы
Вы не можете отвечать на сообщения
Вы не можете редактировать свои сообщения
Вы не можете удалять свои сообщения
Вы не можете голосовать в опросах
Вы не можете прикреплять файлы к сообщениям
Вы не можете скачивать файлы

▼ Вниз