ML
     
  Уважаемый Гость!
Вы можете поддержать проект и зарегистрироваться у наших партнеров - онлайн-стратегия MyLands. При регистрации в игре Вы получите код, который сможете активировать после регистрации на pirat.ca и получить 1000 дублонов.

Ваш код:
5af7de75d3db09b6a37bc8bab71b0e87ccde73d6
 
     

Чужестранка / Outlander / Сезон 2 / Серии: 13 из 13 (Метин Хусейн / Metin Hüseyin, ...) [2016 г., фантастика, драма, мелодрама, WEB-Rip] MVO (NewStudio) + Original (Eng) [Финал сезона]

Ответить на тему
 
Автор
Сообщение

Пост 14-Апр-2016 18:48

[Q] 

kugesan

Чужестранка / Outlander
«Если прошлое станет будущим»
- Русское название: Чужестранка
Оригинальное название: Outlander
Страна: США, Великобритания
Год выпуска: 2016
Жанр: фантастика, драма, мелодрама, ...-Премьера (мир): 9 августа 2014
Премьера (РФ): 22 августа 2014-Озвучка: Студия
Перевод: Многоголосый закадровый, профессиональный
Оригинальный аудиопоток: английский-Перевод: Григорий Сенин
Постер: Vortex-Режиссер: Анна Ферстер / Anna Foerster, Метин Хусейн / Metin Hüseyin, Брайан Келли / Brian Kelly, ...
В главных ролях: Катрина Балф, Сэм Хьюэн, Данкан Лакруа, Гари Льюис, Грэм Мак Тавиш, Тобайас Мензис, Стивен Уолтерс, Аннет Бэдленд, Родерик Джилкисон, ...-Описание фильма:
Сериал рассказывает историю Клэр Рэндалл, военной медсестры из 40-х годов XX века, которая во время прогулки у легендарных шотландских каменных кругов загадочно перемещается во времени в 1743-й год. Попадая в XVIII век, Клэр оказывается в неизвестном мире, где ее жизни угрожает опасность. Девушка должна найти возможность выжить и вернуться обратно в будущее, где остался ее муж Фрэнк Рэндалл. Чтобы спастись в неизвестном и незнакомом героине прошлом, она вынуждена выйти замуж за Джейми Фрейзера, галантного шотландского воина со сложной судьбой и обезоруживающим чувством юмора.-Сезон: 2
Серии: 13 из 13 серий
Продолжительность: ~ 01:00:00 мин серия-
Качество видео: WEB-Rip
Контейнер: AVI
Видео кодек: XviD
Аудио кодек: MP3
Видео: MPEG-4 Visual at 1353 Кбит/сек: 720 x 400 (1.800) at 23.976 fps: 0.20 Бит/Пиксели
Аудио Rus: MPEG Audio at 128 Кбит/сек: 2 канала, 48,0 КГц |NewStudio|
Аудио Eng: MPEG Audio at 128 Кбит/сек: 2 канала, 48,0 КГц |Original|
- Outlander Season 2 Promo photos-
  • Сквозь тусклое стекло (Sassenach)
  • Больше не в Шотландии (Not in Scotland Anymore)
  • Полезные занятия и ухищрения (Useful Occupations and Deceptions)
  • Белая дама (La Dame Blanche)
  • Несвоевременное воскрешение (Untimely Resurrection)
  • Самые лучшие планы (Best Laid Schemes)
  • Вера (Faith)
  • Лисья нора (The Fox's Lair)
  • Я готов (Je Suis Prest)
  • Престонпанс (Prestonpans)
  • Отмщение моё (Vengeance Is Mine)
  • Дева Мария (The Hail Mary)
  • Стрекоза в янтаре (Dragonfly in Amber)
-
Общее
Полное имя : E:\_Сериалы\_Сериалы\Чужестранка\Outlander.s02.WEBDLRip.NewStudio.TV\Outlander.s02e01.WEBDLRip.NewStudio.TV.avi
Формат : AVI
Формат/Информация : Audio Video Interleave
Размер файла : 685 Мбайт
Продолжительность : 59 м.
Общий поток : 1623 Кбит/сек
Программа кодирования : VirtualDubMod 1.5.10.2 (build 2540/release)
Библиотека кодирования : VirtualDubMod build 2540/release
Видео
Идентификатор : 0
Формат : MPEG-4 Visual
Профиль формата : Advanced [email protected]
Параметр BVOP формата : 2
Параметр QPel формата : Нет
Параметр GMC формата : Без точки перехода
Параметр матрицы формата : Default (MPEG)
Идентификатор кодека : XVID
Идентификатор кодека/Подсказка : XviD
Продолжительность : 59 м.
Битрейт : 1353 Кбит/сек
Ширина : 720 пикселей
Высота : 400 пикселей
Соотношение сторон : 16:9
Частота кадров : 23,976 (23976/1000) кадра/сек
Цветовое пространство : YUV
Субдискретизация насыщенности : 4:2:0
Битовая глубина : 8 бит
Тип развёртки : Прогрессивная
Метод сжатия : С потерями
Бит/(Пиксели*Кадры) : 0.196
Размер потока : 571 Мбайт (83%)
Библиотека кодирования : XviD 73
Аудио #1
Идентификатор : 1
Формат : MPEG Audio
Версия формата : Version 1
Профиль формата : Layer 3
Режим : Joint stereo
Расширение режима : MS Stereo
Идентификатор кодека : 55
Идентификатор кодека/Подсказка : MP3
Продолжительность : 59 м.
Вид битрейта : Постоянный
Битрейт : 128 Кбит/сек
Каналы : 2 канала
Частота : 48,0 КГц
Метод сжатия : С потерями
Размер потока : 54,0 Мбайт (8%)
Выравнивание : Соединение по промежуткам
Продолжительность промежутка : 42 мс. (1,00 видеокадр)
Время предзагрузки промежутка : 504 мс.
Аудио #2
Идентификатор : 2
Формат : MPEG Audio
Версия формата : Version 1
Профиль формата : Layer 3
Режим : Joint stereo
Расширение режима : MS Stereo
Идентификатор кодека : 55
Идентификатор кодека/Подсказка : MP3
Продолжительность : 59 м.
Вид битрейта : Постоянный
Битрейт : 128 Кбит/сек
Каналы : 2 канала
Частота : 48,0 КГц
Метод сжатия : С потерями
Размер потока : 54,0 Мбайт (8%)
Выравнивание : Соединение по промежуткам
Продолжительность промежутка : 42 мс. (1,00 видеокадр)
Время предзагрузки промежутка : 504 мс.
Библиотека кодирования : LAME3.99.5ЄЄЄЄЄЄЄЄЄЄ
-
-Скриншоты:
-
-
Раздача ведётся путём добавления новых серий; при каждом добавлении создаётся новый торрент.
Чтобы начать докачку новой серии, пользователям необходимо сделать следующее:
1. остановить скачивание,
2. удалить старый торрент у себя из клиента (старые серии удалять не надо),
3. скачать новый торрент и запустить его у себя в клиенте вместо старого, при этом указать клиенту путь в старую папку, куда и должно происходить скачивание новых серий.
Ваш клиент при этом должен произвести хеширование (проверку) старой папки (если не производит сам - помогите ему сделать это), и будет докачивать только те серии которых у вас ещё нет. Старые серии при этом не удаляются, а продолжают раздаваться!
Eсли вы уже удалили старые серии, то предотвратить повторную закачку старых серий можно, отжав галочку в соответствующих местах при запуске нового торрента. По возможности, желательно не удалять старые серии как можно дольше, чтобы релизёр не столько продолжал раздавать старые серии, а смог сконцентрироваться на новых.
Совет для тех, кто не хочет ждать перехеширования:
Создайте ещё одну папку рядом с папкой сериала (рядом, а не в ней!!!). Каждую новую серию после удачной загрузки копируйте в новую папку так чтобы ваша основная папка всегда была пуста. Когда ваш новый торрент предложит вам закачать все файлы, выберете только последнюю. Для сидирования же укажите адрес новой папки.
Как закачать отдельный файл из торрента или докачать ранее пропущенные файлы торрента!
-
1. Открыть торрент
2. Снять галки с тех файлов торрента, которые мы не хотим закачивать. Оставляем только на нужных нам файлах (файле).
3. Нажать О.К.
В клиенте utorrent
Инструкция
1) Открыть торрент

2) Снять галки с тех файлов торрента, которые мы не хотим закачивать:
* либо вручную, снимая с каждого файла галку( скрин №1)
* либо, нажав кнопку "Снять метки (Select None)", сняв сразу со всех файлов(скрин №2)
№1

№2

Оставляем только на нужных нам файлах (файле).

3)Нажать О.К
-Добавлена тринадцатая, заключительная, серия второго сезона-Приятного просмотра!!!-
Download / Скачать

Хотите скачать бесплатно? Зарегистрируйтесь на сайте (ссылка на регистрацию). Pirat.ca - самый быстрый торрент трекер в рунете!

Как скачивать  ·   Что такое торрент  ·   Рейтинг и ограничения



Последний раз редактировалось: kugesan (2016-07-22 19:23), всего редактировалось 17 раз(а)

Mr Spock

Лоцман

Пост 14-Апр-2016 19:14 (спустя 25 минут)

[Q] 

Спасибо,очень ждал продолжения!!! Лови бочку Спасибо!!!
[Профиль]  [ЛС] 

AugustBeniowski

Лоцман

Пост 04-Май-2016 15:30 (спустя 19 дней)

[Q] 

Раздающему респект!
Трафик потрачен зря!
[Профиль]  [ЛС] 

[email protected]

Штурман

Пост 15-Май-2016 00:10 (спустя 10 дней)

[Q] 

Спасибо! Аккурат просмотрел 2ве серии
[Профиль]  [ЛС] 

omenmeister

Шкипер

2

Пост 21-Июл-2016 22:17 (спустя 2 месяца 6 дней)

[Q] 

Спасибо! Ждем последнюю серию сезона.

_________________
Ничто так не возвышает человека над толпой, как это делает виселица
[Профиль]  [ЛС] 
Показать сообщения:    
Ответить на тему

Текущее время: Сегодня 14:13

Часовой пояс: GMT + 4



Вы не можете начинать темы
Вы не можете отвечать на сообщения
Вы не можете редактировать свои сообщения
Вы не можете удалять свои сообщения
Вы не можете голосовать в опросах
Вы не можете прикреплять файлы к сообщениям
Вы не можете скачивать файлы

▼ Вниз