ML
     
  Уважаемый Гость!
Вы можете поддержать проект и зарегистрироваться у наших партнеров - онлайн-стратегия MyLands. При регистрации в игре Вы получите код, который сможете активировать после регистрации на pirat.ca и получить 1000 дублонов.

Ваш код:
73640f24f8a0f579e128ea7346fd2db2b1009143
 
     

Охотники / Hunters / Сезон 1 / Серии: 13 из 13 (Эмиль Левисетти / Emile Levisetti, ...) [2016г., фантастика, триллер, драма, криминал, ... WEB-DLRip] MVO (BaibaKo) + Original (Eng) [Финал сезона]

Ответить на тему
 
Автор
Сообщение

Пост 14-Апр-2016 22:58

[Q] 

kugesan

Охотники / Hunters «A new breed of terrorist»- Страна: США
Год выпуска: 2016
Жанр: фантастика, триллер, драма, криминал, ...-Озвучка: Студия
Перевод: Многоголосый закадровый, профессиональный
Оригинальный аудиопоток: английский-Перевод: Тара, Лера Белянина и Татьяна Ланцетова
Озвучка: Юлия Котурбаш, Олекса Мельник, Виталий Ткаченко и Андрей Корзаченко
Монтаж: Виталий Ткаченко
Обложка: Антон Максимов-Премьера (мир): 11 апреля 2016-Режиссер: Эмиль Левисетти / Emile Levisetti, Глендин Айвин / Glendyn Ivin, Мат Кинг / Mat King, ...
В главных ролях: Джулиан МакМэхон, Бритни Олдфорд, Нэйтан Филлипс, Ханна Фредериксен, Марк Коулз Смит, Льюис Фиц-Джералд, Сара Пирс, Лаура Гордон, Эдвина Рен, Шеннон Берри, Дениз Акдениз, ...-Описание фильма:
Полицейский из Филадельфии разыскивает свою пропавшую супругу. В результате длительных поисков он выходит на след засекреченного правительственного подразделения, ведущего охоту на группу безжалостных террористов, которые очень вероятно принадлежат другому миру.-Сезон: 1
Серии: 13 из 13 серий
Продолжительность: ~ 00:43:00 мин серия-Качество видео: WEB-DLRip
Формат: AVI
Видеокодек: XviD
Аудио кодек: AC-3
Видео: MPEG-4 Visual at 1480 Кбит/сек: 720 x 400 (1.800) at 23.976 fps: 0.21 Бит/Пиксели
Аудио Rus: AC-3 at 384 Кбит/сек: 6 каналов, 48,0 КГц |BaibaKo|
Аудио Eng: AC-3 at 384 Кбит/сек: 6 каналов, 48,0 КГц |Original|
- -
  • Начало & Конец (The Beginning & The End)
  • Послание (Messages)
  • Орлеанская Дева (Maid of Orleans)
  • Любовь и насилие (Love and Violence)
  • Ее тело в моей душе (Her Body in My Soul)
  • Бункер солдат (Bunker Soldier)
  • Целуя машины (Kissing the Machine)
  • Я вижу больше, чем вы (he More I See You)
  • Обещание (Promise)
  • Наша система (Our System)
  • Телеграф (Telegraph)
  • Способность видеть будущее (Pretending to See the Future)
  • Новая святая земля (New Holy Ground)
-
Общее
Полное имя : E:\_Сериалы\_Сериалы\Охотники\Hunters.s01.WEB-DLRip.Rus.Eng.BaibaKo\Hunters.s01e01.WEB-DLRip.Rus.Eng.BaibaKo.tv.avi
Формат : AVI
Формат/Информация : Audio Video Interleave
Размер файла : 696 Мбайт
Продолжительность : 43 м.
Общий поток : 2262 Кбит/сек
Программа кодирования : VirtualDubMod 1.5.10.2 (build 2540/release)
Библиотека кодирования : VirtualDubMod build 2540/release
Видео
Идентификатор : 0
Формат : MPEG-4 Visual
Профиль формата : Advanced [email protected]
Параметр BVOP формата : 2
Параметр QPel формата : Нет
Параметр GMC формата : Без точки перехода
Параметр матрицы формата : Default (MPEG)
Идентификатор кодека : XVID
Идентификатор кодека/Подсказка : XviD
Продолжительность : 43 м.
Битрейт : 1480 Кбит/сек
Ширина : 720 пикселей
Высота : 400 пикселей
Соотношение сторон : 16:9
Частота кадров : 23,976 (23976/1000) кадра/сек
Цветовое пространство : YUV
Субдискретизация насыщенности : 4:2:0
Битовая глубина : 8 бит
Тип развёртки : Прогрессивная
Метод сжатия : С потерями
Бит/(Пиксели*Кадры) : 0.214
Размер потока : 456 Мбайт (65%)
Библиотека кодирования : XviD 1.2.0.dev47 (UTC 2006-11-01)
Аудио #1
Идентификатор : 1
Формат : AC-3
Формат/Информация : Audio Coding 3
Расширение режима : CM (complete main)
Параметр Endianness формата : Big
Идентификатор кодека : 2000
Продолжительность : 43 м.
Вид битрейта : Постоянный
Битрейт : 384 Кбит/сек
Каналы : 6 каналов
Расположение каналов : Front: L C R, Side: L R, LFE
Частота : 48,0 КГц
Частота кадров : 31,250 кадров/сек (1536 spf)
Метод сжатия : С потерями
Задержка видео : 29 мс.
Размер потока : 118 Мбайт (17%)
Выравнивание : Разделение по промежуткам
Продолжительность промежутка : 42 мс. (1,00 видеокадр)
Время предзагрузки промежутка : 500 мс.
Аудио #2
Идентификатор : 2
Формат : AC-3
Формат/Информация : Audio Coding 3
Расширение режима : CM (complete main)
Параметр Endianness формата : Big
Идентификатор кодека : 2000
Продолжительность : 43 м.
Вид битрейта : Постоянный
Битрейт : 384 Кбит/сек
Каналы : 6 каналов
Расположение каналов : Front: L C R, Side: L R, LFE
Частота : 48,0 КГц
Частота кадров : 31,250 кадров/сек (1536 spf)
Метод сжатия : С потерями
Задержка видео : 29 мс.
Размер потока : 118 Мбайт (17%)
Выравнивание : Разделение по промежуткам
Продолжительность промежутка : 42 мс. (1,00 видеокадр)
Время предзагрузки промежутка : 500 мс.
-
-Скриншоты:
-
-
Раздача ведётся путём добавления новых серий; при каждом добавлении создаётся новый торрент.
Чтобы начать докачку новой серии, пользователям необходимо сделать следующее:
1. остановить скачивание,
2. удалить старый торрент у себя из клиента (старые серии удалять не надо),
3. скачать новый торрент и запустить его у себя в клиенте вместо старого, при этом указать клиенту путь в старую папку, куда и должно происходить скачивание новых серий.
Ваш клиент при этом должен произвести хеширование (проверку) старой папки (если не производит сам - помогите ему сделать это), и будет докачивать только те серии которых у вас ещё нет. Старые серии при этом не удаляются, а продолжают раздаваться!
Eсли вы уже удалили старые серии, то предотвратить повторную закачку старых серий можно, отжав галочку в соответствующих местах при запуске нового торрента. По возможности, желательно не удалять старые серии как можно дольше, чтобы релизёр не столько продолжал раздавать старые серии, а смог сконцентрироваться на новых.
Совет для тех, кто не хочет ждать перехеширования:
Создайте ещё одну папку рядом с папкой сериала (рядом, а не в ней!!!). Каждую новую серию после удачной загрузки копируйте в новую папку так чтобы ваша основная папка всегда была пуста. Когда ваш новый торрент предложит вам закачать все файлы, выберете только последнюю. Для сидирования же укажите адрес новой папки.
Как закачать отдельный файл из торрента или докачать ранее пропущенные файлы торрента!
-
1. Открыть торрент
2. Снять галки с тех файлов торрента, которые мы не хотим закачивать. Оставляем только на нужных нам файлах (файле).
3. Нажать О.К.
В клиенте utorrent
Инструкция
1) Открыть торрент

2) Снять галки с тех файлов торрента, которые мы не хотим закачивать:
* либо вручную, снимая с каждого файла галку( скрин №1)
* либо, нажав кнопку "Снять метки (Select None)", сняв сразу со всех файлов(скрин №2)
№1

№2

Оставляем только на нужных нам файлах (файле).

3)Нажать О.К
-Добавлена тринадцатая, заключительная, серия первого сезона-Приятного просмотра!!!-
Download / Скачать

Хотите скачать бесплатно? Зарегистрируйтесь на сайте (ссылка на регистрацию). Pirat.ca - самый быстрый торрент трекер в рунете!

Как скачивать  ·   Что такое торрент  ·   Рейтинг и ограничения



Последний раз редактировалось: kugesan (2016-07-13 14:26), всего редактировалось 12 раз(а)

Alex270

Шкипер

Пост 16-Апр-2016 06:54 (спустя 1 день 7 часов)

[Q] 

так себе,дешёвая фантастика.
[Профиль]  [ЛС] 

Operkosm

Матрос

Пост 12-Май-2016 23:00 (спустя 26 дней)

[Q] 

А когда будет 4 серия? Ведь давно уже вышла.
[Профиль]  [ЛС] 

nitro1985

Корсар

Пост 13-Май-2016 22:14 (спустя 23 часа)

[Q] 

На любителя
На любителя
[Профиль]  [ЛС] 

a_barat

Гроза морей

3249

Пост 15-Май-2016 16:51 (спустя 1 день 18 часов)

[Q] 

Нормально для низкобюджетника.
Лови бочку Автору респект!!!

_________________
This message represents an official view of the voices in my head af
[Профиль]  [ЛС] 

maaximkaa

Корсар

Пост 16-Июн-2016 02:10 (спустя 1 месяц)

[Q] 

753717Добавлена десятая серия первая сезона
Приятного просмотра!!!
десятая серия первая сезона начальника
моя очень спешить, поэтому первая сезона bj
без обид начальника, улыбнула опечатка
[Профиль]  [ЛС] 

kugesan ®

56646

Пост 16-Июн-2016 13:05 (спустя 10 часов)

[Q] 

Ну вот, хоть кому то поднял настроение )))

_________________

В мире две бесконечности: вселенная и человеческая глупость - Альберт Эйнштен
«Можно вытащить человека из грязи, но нельзя вытащить грязь из человека»!
[Профиль]  [ЛС] 
Показать сообщения:    
Ответить на тему

Текущее время: Сегодня 22:34

Часовой пояс: GMT + 4



Вы не можете начинать темы
Вы не можете отвечать на сообщения
Вы не можете редактировать свои сообщения
Вы не можете удалять свои сообщения
Вы не можете голосовать в опросах
Вы не можете прикреплять файлы к сообщениям
Вы не можете скачивать файлы

▼ Вниз