ML
     
  Уважаемый Гость!
Вы можете поддержать проект и зарегистрироваться у наших партнеров - онлайн-стратегия MyLands. При регистрации в игре Вы получите код, который сможете активировать после регистрации на pirat.ca и получить 1000 дублонов.

Ваш код:
2932e5898d0a27592397f70b82a5834d1e70ea19
 
     

ЧАСОВОЙ / THE SENTINEL / Сезон: 1 из 4 / Серии: 1-10 из 10 (Брюс Билсон / Bruce Bilson...) [1996 г., фантастика, боевик, криминал, приключения, DVDRip] MVO [+ Original (Eng)]

Ответить на тему
 
Автор
Сообщение

Пост 16-Апр-2016 11:33

[Q] 

somik

Легенда

-Часовой / The Sentinel-- Производство: Канада, США, Paramount Television, Pet Fly Productions
Жанр: фантастика, боевик, криминал, приключения
Год выпуска: 1996 г.
Продолжительность: 00:45:00
Мировая премьера: 20 марта 1996
Перевод: Любительский (многоголосый, закадровый)
Оригинальный аудиопоток: английский
Режиссер: Брюс Билсон / Bruce Bilson...-В ролях: Ричард Берджи, Garett Maggart, Брюс А. Янг, Ryf Van Rij, Кен Эрл, Лесли Ивен, Анна Галвин, Келли Кертис, Генри Браун, Кендалл Кросс и др.-Описание: Джим Эллисон — армейский рейнджер США который провёл 18 месяцев в джунглях Перу после гибели его отряда. За это время, его пять чувств обострились до сверхчеловеческих возможностей. Вернувшись в цивилизованный мир, он подавил в себе эти способности. Но через пять лет, они вновь вернулись во время длительного ожидания в лесу будучи следователем города Каскейд, штат Вашингтон. Решив что с ним что-то не так, Джим идёт в больницу на обследование. Там он встречает антрополога Блэра Сэндбурга, который утверждает что Джим является так-называемым «Часовым». В древних племенах, Часовые защищали деревни от врагов используя свои сверхчувства. Для Джима, деревней является город Каскейд. Блэр уже много лет изучает мифологию связанную с Часовыми, но ни разу до сих пор не встречал живого экземпляра со всеми пятью гиперактивными чувствами.
Блэр помогает Джиму управлять своими чувствами и следует за ним в роли полицейского наблюдателя. К удивлению многих, это странное партнёрство удаётся, и им удаётся вместе раскрыть много преступлений в Каскейде.
Джим может видеть то что не видит никто другой, даже в темноте. Он может слышать то что не услышит другой. То же самое касается и вкуса, обоняния и осязания. По-сути, Джим является ходячей экспертизной лабораторией. Но у его способностей есть и недостаток — если он слишком сильно сосредоточится на одной из способностей, все остальные чувства временно пропадают. Одна из задач Блэра — предотвращать это, а также помогать Джиму когда это случается.
Единственный кроме Блэра кто знает о способностях Джима — его начальник и друг Саймон Бэнкс. Также, в последнем сезоне об этом узнаёт Меган Коннор.-
Качество видео: DVDRip
Контейнер: AVI
Видео кодек: XviD
Аудио кодек: MP3
Видео: Video: 512x384 (1.33:1), 23.976 fps, XviD MPEG-4 ~864 kbps avg, 0.18 bit/pixel
Аудио: Audio #1: 44.100 kHz, MPEG Layer 3, 2 ch, ~128.00 kbps avg
Аудио #2: Audio #2: 48 kHz, AC3 Dolby Digital, 2/0 (L,R) Surround Encoded ch, ~192 kbps
Cубтитры: отсутствуют
Ностальгия.
Этак лет пятнадцать назад, я впервые посмотрел сериал «Часовой» и он мне очень понравился. Понятное дело, что в подростковом возрасте не сильно заморачиваешься над тонкостями, все же сериал запал мне в память и когда я случайно наткнулся на него здесь, то без раздумья поставил 9. Позже, решив удостоверится в своей объективности, начал пересмотр и убедился в правильности решения.
«Часовому» уже двадцать лет и он все равно держит планку. Да, возможно, он немного наивен и иногда провисает сюжет, но на это не обращаешь внимания. Действие гармонично и не затянуто, персонажи проработаны, спецэффекты смотрятся пристойно даже сейчас. Единственный минус — вы не найдете все 4 сезона (мне это так и не удалось), я разыскал два…
Итог: советую всем. Фантастика 90-х рулит!
9 из 10
Формат : AVI
Формат/Информация : Audio Video Interleave
Размер файла : 393 Мбайт
Продолжительность : 45 м.
Общий поток : 1200 Кбит/сек
Название фильма : The_Sentinel_s01_e01_DVDRip_RUS.[pirat.ca]
Программа кодирования : VirtualDubMod 1.5.10.2 (build 2540/release)
Видео
Идентификатор : 0
Формат : MPEG-4 Visual
Профиль формата : Advanced [email protected]
Параметр BVOP формата : 1
Параметр QPel формата : Нет
Параметр GMC формата : Без точки перехода
Параметр матрицы формата : Default (H.263)
Режим смешивания : Сжатый битовый поток
Идентификатор кодека : XVID
Идентификатор кодека/Подсказка : XviD
Продолжительность : 45 м.
Битрейт : 865 Кбит/сек
Ширина : 512 пикселей
Высота : 384 пикселя
Соотношение сторон : 4:3
Частота кадров : 23,976 (23976/1000) кадра/сек
Цветовое пространство : YUV
Субдискретизация насыщенности : 4:2:0
Битовая глубина : 8 бит
Тип развёртки : Прогрессивная
Метод сжатия : С потерями
Бит/(Пиксели*Кадры) : 0.184
Размер потока : 284 Мбайт (72%)
Библиотека кодирования : XviD 1.1.0 (UTC 2005-11-22)
Аудио #1
Идентификатор : 1
Формат : MPEG Audio
Версия формата : Version 1
Профиль формата : Layer 3
Режим : Joint stereo
Расширение режима : MS Stereo
Идентификатор кодека : 55
Идентификатор кодека/Подсказка : MP3
Продолжительность : 45 м.
Вид битрейта : Постоянный
Битрейт : 128 Кбит/сек
Каналы : 2 канала
Частота : 44,1 КГц
Метод сжатия : С потерями
Размер потока : 41,9 Мбайт (11%)
Выравнивание : Разделение по промежуткам
Продолжительность промежутка : 42 мс. (1,00 видеокадр)
Время предзагрузки промежутка : 500 мс.
Аудио #2
Идентификатор : 2
Формат : AC-3
Формат/Информация : Audio Coding 3
Профиль формата : Dolby Digital
Расширение режима : CM (complete main)
Параметр Endianness формата : Big
Идентификатор кодека : 2000
Продолжительность : 45 м.
Вид битрейта : Постоянный
Битрейт : 192 Кбит/сек
Каналы : 2 канала
Расположение каналов : Front: L R
Частота : 48,0 КГц
Частота кадров : 31,250 кадров/сек (1536 spf)
Метод сжатия : С потерями
Размер потока : 62,9 Мбайт (16%)
Выравнивание : Разделение по промежуткам
Продолжительность промежутка : 42 мс. (1,00 видеокадр)
Время предзагрузки промежутка : 500 мс.
Download / Скачать

Хотите скачать бесплатно? Зарегистрируйтесь на сайте (ссылка на регистрацию). Pirat.ca - самый быстрый торрент трекер в рунете!

Как скачивать  ·   Что такое торрент  ·   Рейтинг и ограничения

Lifted

Флибустьер

220

Пост 17-Апр-2016 16:53 (спустя 1 день 5 часов)

[Q] 

попробуем, roswell не понравился, может это войдет) спасибо. ни разу не слышал о таких сериалах, просвещаешь
[Профиль]  [ЛС] 
Показать сообщения:    
Ответить на тему

Текущее время: Сегодня 08:04

Часовой пояс: GMT + 4



Вы не можете начинать темы
Вы не можете отвечать на сообщения
Вы не можете редактировать свои сообщения
Вы не можете удалять свои сообщения
Вы не можете голосовать в опросах
Вы не можете прикреплять файлы к сообщениям
Вы не можете скачивать файлы

▼ Вниз