ML
     
  Уважаемый Гость!
Вы можете поддержать проект и зарегистрироваться у наших партнеров - онлайн-стратегия MyLands. При регистрации в игре Вы получите код, который сможете активировать после регистрации на pirat.ca и получить 1000 дублонов.

Ваш код:
db0e0ad91548759ffeb9bb88bed405e1a4b3c165
 
     

Закон Мерфи / Murphy's Law / Сезон: 3 / Серии: 1-6 из 6 (Колм МакКарти / Colm McCarthy...) [2005 г., драма, криминал, детектив, DVDRip] DVO (ТВ "Звезда)

Ответить на тему
 
Автор
Сообщение

Пост 18-Апр-2016 09:32

[Q] 

somik

Легенда

-Закон Мерфи / Murphy's Law-- Производство: Великобритания, BBC Northern Ireland, Horsebridge Productions Limited, Irish Film Board, Tiger Aspect Productions
Жанр: драма, криминал, детектив
Год выпуска: 2005 г.
Продолжительность: 00:50:00
Перевод: Профессиональный (двухголосый, закадровый) [ТВ "Звезда]
Режиссер: Колм МакКарти / Colm McCarthy...-В ролях: Джеймс Несбитт, Дел Синнотт, Сара Бергер, Майкл Фист, Марк Вомак, Клаудия Харрисон, Оуэн Тил, Марк Бентон, Майкл Фассбендер, Джорджия Маккензи-Описание: Инспектору лондонской полиции Томасу Мэрфи поручают расследования самых сложных уголовных преступлений, требующих не только сообразительности, но большой отваги и решительности, а иногда и умения перевоплощаться.-
Качество видео: DVDRip
Контейнер: AVI
Видео кодек: XviD
Аудио кодек: MP3
Видео: Video: 720x400 (1.80:1), 25 fps, XviD build 46 ~876 kbps avg, 0.12 bit/pixel
Аудио: Audio: 48 kHz, MPEG Layer 3, 2 ch, ~128.00 kbps avg
Cубтитры: отсутствуют
S3, Ep1
26 May 2005
The Goodbye Look
Working undercover as a gun dealer, DS Tommy Murphy changes course in the middle of a sting operation when a buyer, Caz Miller, mentions that the gun is to be used for a hit. He convinces his superiors that it's better to make the investment and go in for the long haul by presenting himself as a hit man rather than just arrest someone for illegal purchase of a firearm. It turns out that Caz works for Dave Callard, a well-known gangster who has been diversifying his investments into legitimate enterprises. The man he wants killed is an employee, Richard Holloway, who ...
S3, Ep2
2 Jun. 2005
Disorganised Crime
DS Tommy Murphy continues to work undercover building the case against Dave Callard. Caz Miller arranges for Murphy to meet the McGeechan brothers who want their automatic weapons to be re-activated. It turns out however that the men's sister, Ellie, is married to Richard Holloway who Callard had hired Murphy to eliminate and they very much care about her welfare. The men plan to steal a shipment of heroin but the connection Callard isn't obvious. Murphy works his way into the gang and sets them up for arrest.
S3, Ep3
9 Jun. 2005
Strongbox
Still undercover to bring down Dave Callard, Murphy works as an intermediary when he learns there's a deal for a large sum of counterfeit money. When his undercover partner Jill is killed however, he must salvage the counterfeiting deal as well as find her killer. Things get difficult however when her underworld contacts targets Murphy as her killer. While he manages to find the killer, the case becomes more complex when an unexpected individual shows up.
S3, Ep4
16 Jun. 2005
Extra Mile
Murphy gambles his career to establish a connection between an MP and a gangland boss.
S3, Ep5
30 Jun. 2005
Boy's Night Out
Murphy is on hand to crack a drugs gang when events suddenly spiral out of control.
S3, Ep6
30 Jun. 2005
Hard Boiled Eggs and Nuts
Gangster boss Callard appears to be slipping out of Murphy's grasp, so he has to act fast.
В 2005 году номинировался на IFTA Award за лучшую главную роль в сериале и лучший драматический сериал, в 2007 году — за лучшую главную и второстепенную, а также лучший драматический сериал, в 2008 — за лучший драматический сериал.
Формат : AVI
Формат/Информация : Audio Video Interleave
Размер файла : 377 Мбайт
Продолжительность : 52 м.
Общий поток : 1014 Кбит/сек
Название фильма : Murphy's.Law.s03e01.The.Goodbye.Look.DVDRip
Программа кодирования : VirtualDubMod 1.5.4.1 (build 2178/release)
Видео
Идентификатор : 0
Формат : MPEG-4 Visual
Профиль формата : Advanced [email protected]
Параметр BVOP формата : 1
Параметр QPel формата : Нет
Параметр GMC формата : Без точки перехода
Параметр матрицы формата : Выборочная
Идентификатор кодека : XVID
Идентификатор кодека/Подсказка : XviD
Продолжительность : 52 м.
Битрейт : 876 Кбит/сек
Ширина : 720 пикселей
Высота : 400 пикселей
Соотношение сторон : 16:9
Частота кадров : 25,000 кадров/сек
Цветовое пространство : YUV
Субдискретизация насыщенности : 4:2:0
Битовая глубина : 8 бит
Тип развёртки : Прогрессивная
Метод сжатия : С потерями
Бит/(Пиксели*Кадры) : 0.122
Размер потока : 326 Мбайт (86%)
Библиотека кодирования : XviD 1.1.2 (UTC 2006-11-01)
Аудио
Идентификатор : 1
Формат : MPEG Audio
Версия формата : Version 1
Профиль формата : Layer 3
Режим : Joint stereo
Расширение режима : MS Stereo
Идентификатор кодека : 55
Идентификатор кодека/Подсказка : MP3
Продолжительность : 51 м.
Вид битрейта : Постоянный
Битрейт : 128 Кбит/сек
Каналы : 2 канала
Частота : 48,0 КГц
Метод сжатия : С потерями
Размер потока : 47,6 Мбайт (13%)
Выравнивание : Разделение по промежуткам
Продолжительность промежутка : 40 мс. (1,00 видеокадр)
Время предзагрузки промежутка : 500 мс.
Download / Скачать

Хотите скачать бесплатно? Зарегистрируйтесь на сайте (ссылка на регистрацию). Pirat.ca - самый быстрый торрент трекер в рунете!

Как скачивать  ·   Что такое торрент  ·   Рейтинг и ограничения

Показать сообщения:    
Ответить на тему

Текущее время: Сегодня 08:09

Часовой пояс: GMT + 4



Вы не можете начинать темы
Вы не можете отвечать на сообщения
Вы не можете редактировать свои сообщения
Вы не можете удалять свои сообщения
Вы не можете голосовать в опросах
Вы не можете прикреплять файлы к сообщениям
Вы не можете скачивать файлы

▼ Вниз