ML
     
  Уважаемый Гость!
Вы можете поддержать проект и зарегистрироваться у наших партнеров - онлайн-стратегия MyLands. При регистрации в игре Вы получите код, который сможете активировать после регистрации на pirat.ca и получить 1000 дублонов.

Ваш код:
8b752b428cf60a012c159dcae592cd1392170115
 
     

Закон Мерфи / Murphy's Law / Сезон: 4 / Серии: 1-3 из 3 (Колм МакКарти / Colm McCarthy...) [2006 г., драма, криминал, детектив, TVRip] DVO (ТВ "Звезда")

Ответить на тему
 
Автор
Сообщение

Пост 18-Апр-2016 13:52

[Q] 

somik

Легенда

-Закон Мерфи / Murphy's Law-- Производство: Великобритания, BBC Northern Ireland, HorsebridgeProductions Limited, Irish Film Board, Tiger Aspect Productions
Жанр: драма, криминал, детектив
Год выпуска: 2006 г.
Продолжительность: 00:50:00
Мировая премьера: 27 авг. 2006
Перевод: Профессиональный (двухголосый, закадровый) [ТВ "Звезда"]
Режиссер: Колм МакКарти / Colm McCarthy...-В ролях: Джеймс Несбитт, Дел Синнотт, Сара Бергер, Майкл Фист, Марк Вомак, Клаудия Харрисон, Оуэн Тил, Марк Бентон, Майкл Фассбендер, Джорджия Маккензи-Описание: Инспектор лондонской полиции Томас Мерфи типичный «крутой парень»: немногословный, суровый, решительный. Именно ему в участке поручают самые сложные и запутанные дела. Захватывающий детектив о неравной схватке добропорядочного инспектора с английской преступностью...-
Качество видео: TVRip
Контейнер: AVI
Видео кодек: XviD
Аудио кодек: MP3
Видео: Video: 640x480 (1.33:1), 50 fps, XviD MPEG-4 ~1194 kbps avg, 0.08 bit/pixel
Аудио: Audio: 48 kHz, MPEG Layer 3, 2 ch, ~128.00 kbps avg
Cубтитры: отсутствуют
Формат : AVI
Формат/Информация : Audio Video Interleave
Размер файла : 397 Мбайт
Продолжительность : 48 м.
Общий поток : 1150 Кбит/сек
Библиотека кодирования : VirtualDub build 30091/release
Видео
Идентификатор : 0
Формат : MPEG-4 Visual
Профиль формата : Advanced [email protected]
Параметр BVOP формата : 2
Параметр QPel формата : Нет
Параметр GMC формата : Без точки перехода
Параметр матрицы формата : Default (H.263)
Режим смешивания : Сжатый битовый поток
Идентификатор кодека : XVID
Идентификатор кодека/Подсказка : XviD
Продолжительность : 48 м.
Битрейт : 1012 Кбит/сек
Ширина : 640 пикселей
Высота : 480 пикселей
Соотношение сторон : 4:3
Частота кадров : 25,000 кадров/сек
Цветовое пространство : YUV
Субдискретизация насыщенности : 4:2:0
Битовая глубина : 8 бит
Тип развёртки : Прогрессивная
Метод сжатия : С потерями
Бит/(Пиксели*Кадры) : 0.132
Размер потока : 349 Мбайт (88%)
Библиотека кодирования : XviD 1.2.0.dev47 (UTC 2006-11-01)
Аудио
Идентификатор : 1
Формат : MPEG Audio
Версия формата : Version 1
Профиль формата : Layer 3
Режим : Joint stereo
Расширение режима : MS Stereo
Идентификатор кодека : 55
Идентификатор кодека/Подсказка : MP3
Продолжительность : 48 м.
Вид битрейта : Постоянный
Битрейт : 128 Кбит/сек
Каналы : 2 канала
Частота : 48,0 КГц
Метод сжатия : С потерями
Размер потока : 44,2 Мбайт (11%)
Выравнивание : Разделение по промежуткам
Продолжительность промежутка : 40 мс. (1,00 видеокадр)
Время предзагрузки промежутка : 500 мс.
Download / Скачать

Хотите скачать бесплатно? Зарегистрируйтесь на сайте (ссылка на регистрацию). Pirat.ca - самый быстрый торрент трекер в рунете!

Как скачивать  ·   Что такое торрент  ·   Рейтинг и ограничения

Показать сообщения:    
Ответить на тему

Текущее время: Сегодня 06:18

Часовой пояс: GMT + 4



Вы не можете начинать темы
Вы не можете отвечать на сообщения
Вы не можете редактировать свои сообщения
Вы не можете удалять свои сообщения
Вы не можете голосовать в опросах
Вы не можете прикреплять файлы к сообщениям
Вы не можете скачивать файлы

▼ Вниз