ML
     
  Уважаемый Гость!
Вы можете поддержать проект и зарегистрироваться у наших партнеров - онлайн-стратегия MyLands. При регистрации в игре Вы получите код, который сможете активировать после регистрации на pirat.ca и получить 1000 дублонов.

Ваш код:
ee1288b6f7c09d9d2cb2a0f972aba30460ce9333
 
     

Горное озеро / Озерная гладь / Вершина озера / Top Of The Lake / Сезон: 1 / Серии: 1-7 из 7 (Джейн Кэмпион / Jane Campion...) [2013 г., триллер, драма, криминал, детектив, WEB-DLRip] MVO (Agatha Studdio) + Original (Eng)

Ответить на тему
 
Автор
Сообщение

Пост 18-Апр-2016 23:42

[Q] 

somik

Легенда

-Горное озеро / Озерная гладь / Вершина озера / Top Of The Lake-- Производство: Австралия, Великобритания, США, BBC Television Centre, BBC Worldwide, Escapade Pictures, Fulcrum Media Finance,Screen Australia...
Жанр: триллер, драма, криминал, детектив
Год выпуска: 2013 г.
Продолжительность: 00:50:00
Мировая премьера: 20 января 2013
Российская премьера: 19 марта 2014
Перевод: Профессиональный (многоголосый, закадровый) [Agatha Studdio]
Оригинальный аудиопоток: английский
Режиссер: Джейн Кэмпион / Jane Campion...-В ролях: Элизабет Мосс, Дэвид Уэнэм, Питер Муллан, Холли Хантер, Томас М. Райт, Жаклин Джо, Гэвин Рутерфорд, Сара Валентайн, Коэн Холлоуэй, Люк Бьюкэнэн-Описание: Двенадцатилетняя Туи Митчем на пятом месяце беременности заходит в ледяные озёрные воды… а затем исчезает. Дело поручают детективу Робин Гриффин, вернувшейся в родной город. И это не простое дело о пропавшей без вести. В этом живописном, но глухом городке царит Зло, древнее как сама Земля. Те, кто приезжает туда в поисках Рая, оказываются на дороге в Ад, не найдя счастья в райских ландшафтах Новой Зеландии, где трудно заработать честным трудом. Робин не только должна найти девочку, но и выстоять столкновение со своим прошлым и людьми, о которых она давно предпочла забыть. Каждый шаг, приближающий её к раскрытию дела, также будет раскрывать ей опасную правду о самой себе.-
Качество видео: WEB-DLRip
Контейнер: AVI
Видео кодек: XviD
Аудио кодек: MP3
Видео: Video: 720x400 (1.80:1), 25 fps, XviD build 50 ~1464 kbps avg, 0.20 bit/pixel
Аудио: Audio #1: 48 kHz, MPEG Layer 3, 2 ch, ~192.00 kbps avg
Аудио #2: Audio #2: 48 kHz, MPEG Layer 3, 2 ch, ~192.00 kbps avg
Cубтитры: отсутствуют
Золотой глобус, 2014 год
Победитель (1):
Лучшая актриса мини-сериала или фильма на ТВ ( Элизабет Мосс )
Номинации (1):
Лучший мини-сериал или фильм на ТВ
Премия Гильдии актеров, 2014 год
Номинации (2):
Лучшая женская роль в телефильме или минисериале (Холли Хантер)
Лучшая женская роль в телефильме или минисериале (Элизабет Мосс)
Эмми, 2013 год
Номинации (3):
Лучшая женская роль в мини-сериале или телефильме (Элизабет Мосс) — «For playing Robin»
Лучшая мужская роль второго плана в мини-сериале или телефильме (Питер Муллан) — «For playing Matt»
Лучший мини-сериал или телевизионный фильм
Долина одиноких озер
Сериал «Вершина озера» соответствует всем критериям картинам своего жанра. Есть детектив с тёмным, неизвестным прошлым Робин (Элизабет Мосс), есть таинственный маленькие городок со странными людьми, и конечно же есть дело (преступление), которое взбудоражит кого угодно кроме, пожалуй, жителей этого самого городка.
Робин возвращается в город где выросла чтобы поддержать свою больную раком мать. И в то же время где-то на окраине города в озеро входит двенадцатилетняя девочка Туи, ее видят из проезжающего автобуса и отводят в медпункт, где выясняется что девочка на пятом месяце беременности и тут подключается к делу детектив Робин. Что-то писать более о сюжете я считаю лишним, потому, что спойлеры повсюду в данном случае. Но могу сказать, что авторы сделали все возможное, что бы зритель подозревал практически всех героев, до самого конца.
Атмосфера в фильме, это мое любимое место как и в сериале «Убийство» (The Killing, 2011 г.). В этом сериале она великолепная, пейзажи просто волшебство, горы высокие и грозные, буйная зелень и маленькие озера. Все прямо кричит об одиночестве. Музыкальный ряд тоже отлично подобран поддерживает тему отрешенности и одиночества. Актеры старались быть очень таинственными. Я бы отметила странного парня Джоно (Томас М. Райт) его персонаж был спорным для меня почти весь сериал, постоянно что-то вызывало сомнения. Элизабет Мосс, в роли Робин, на мой взгляд отлично сыграла девушку, которая борется с собой, со своими сомнениями.
После просмотра сериала внутри было какое-то опустошение. И это не из-за финального разоблачения (хотя это тоже свою роль сыграло), а больше из-за сюжета в целом. Нас весь сериал погружают в мир Робин. И это будет не самое приятное путешествие. Но сериал и хорош этой своей необратимой трагичностью. Я советую данный сериал даже не любителям жанра детектива, потому что, помимо прочего этот сериал качественная драма, а так же очередное рассуждение на тему людских душ.
Приятного просмотра!
9 из 10
Формат : AVI
Формат/Информация : Audio Video Interleave
Размер файла : 661 Мбайт
Продолжительность : 49 м.
Общий поток : 1864 Кбит/сек
Программа кодирования : VirtualDubModRus 1.5.10.2 (build 2542/release)
Библиотека кодирования : VirtualDubMod build 2542/release
Видео
Идентификатор : 0
Формат : MPEG-4 Visual
Профиль формата : Advanced [email protected]
Параметр BVOP формата : 2
Параметр QPel формата : Нет
Параметр GMC формата : Без точки перехода
Параметр матрицы формата : Default (H.263)
Идентификатор кодека : XVID
Идентификатор кодека/Подсказка : XviD
Продолжительность : 49 м.
Битрейт : 1466 Кбит/сек
Ширина : 720 пикселей
Высота : 400 пикселей
Соотношение сторон : 16:9
Частота кадров : 25,000 кадров/сек
Цветовое пространство : YUV
Субдискретизация насыщенности : 4:2:0
Битовая глубина : 8 бит
Тип развёртки : Прогрессивная
Метод сжатия : С потерями
Бит/(Пиксели*Кадры) : 0.204
Размер потока : 519 Мбайт (79%)
Библиотека кодирования : XviD 1.2.1 (UTC 2008-12-04)
Аудио #1
Идентификатор : 1
Формат : MPEG Audio
Версия формата : Version 1
Профиль формата : Layer 3
Идентификатор кодека : 55
Идентификатор кодека/Подсказка : MP3
Продолжительность : 49 м.
Вид битрейта : Постоянный
Битрейт : 192 Кбит/сек
Каналы : 2 канала
Частота : 48,0 КГц
Метод сжатия : С потерями
Размер потока : 68,0 Мбайт (10%)
Выравнивание : Соединение по промежуткам
Продолжительность промежутка : 40 мс. (1,00 видеокадр)
Время предзагрузки промежутка : 504 мс.
Аудио #2
Идентификатор : 2
Формат : MPEG Audio
Версия формата : Version 1
Профиль формата : Layer 3
Режим : Joint stereo
Идентификатор кодека : 55
Идентификатор кодека/Подсказка : MP3
Продолжительность : 49 м.
Вид битрейта : Постоянный
Битрейт : 192 Кбит/сек
Каналы : 2 канала
Частота : 48,0 КГц
Метод сжатия : С потерями
Размер потока : 68,0 Мбайт (10%)
Выравнивание : Соединение по промежуткам
Продолжительность промежутка : 40 мс. (1,00 видеокадр)
Время предзагрузки промежутка : 504 мс.
Download / Скачать

Хотите скачать бесплатно? Зарегистрируйтесь на сайте (ссылка на регистрацию). Pirat.ca - самый быстрый торрент трекер в рунете!

Как скачивать  ·   Что такое торрент  ·   Рейтинг и ограничения

Показать сообщения:    
Ответить на тему

Текущее время: Сегодня 18:21

Часовой пояс: GMT + 4



Вы не можете начинать темы
Вы не можете отвечать на сообщения
Вы не можете редактировать свои сообщения
Вы не можете удалять свои сообщения
Вы не можете голосовать в опросах
Вы не можете прикреплять файлы к сообщениям
Вы не можете скачивать файлы

▼ Вниз