ML
     
  Уважаемый Гость!
Вы можете поддержать проект и зарегистрироваться у наших партнеров - онлайн-стратегия MyLands. При регистрации в игре Вы получите код, который сможете активировать после регистрации на pirat.ca и получить 1000 дублонов.

Ваш код:
fcd618d94adc1456bccbde5047c9cd0930e4ae4d
 
     

Гранчестер / Grantchester / Сезон: 2 / Серии: 1-6 из 6 (Тим Файвелл / Tim Fywell...) [2016 г., драма, детектив, HDTVRip] DVO

Ответить на тему
 
Автор
Сообщение

Пост 21-Апр-2016 02:17

[Q] 

somik

Легенда

-Гранчестер / Grantchester-- Производство: Великобритания, Lovely Day
Жанр: драма, детектив
Год выпуска: 2016 г.
Продолжительность: 00:45:00
Мировая премьера: 2 марта 2016
Перевод: Любительский (двухголосый, закадровый)
Режиссер: Тим Файвелл / Tim Fywell...-В ролях: Джеймс Нортон, Робсон Грин, Морвен Кристи, Тесса Пик-Джонс, Аль Уивер, Том Остин, Грегг Лоу, Фелина Рогган, Кейси Эйнсуорт, Крис Бирн и др.-Описание: Действие происходит в 1953 году в живописной деревушке Гранчестер в Кембриджшире. Главный герой — Сидни Чемберс, харизматичный и очаровательный викарий, который начинает собственное расследование, когда один из его прихожан умирает при подозрительных обстоятельствах.-
Качество видео: HDTVRip
Контейнер: AVI
Видео кодек: XviD
Аудио кодек: AC3
Видео: 720x404 (1.78:1), 25 fps, XviD build 64 ~1500 kbps avg, 0.18 bit/pixel
Аудио: 48 kHz, AC3 Dolby Digital, 2/0 (L,R) ch, ~192.00 kbps avg
Cубтитры: отсутствуют
#anti-sherlock
Именно под этим звучным и отчасти вызывающим хэштегом, как правило, пишутся ревью на Гранчестер.
И действительно, пока «Sherlock» принимает на себя ударную волну юных и не очень фемин, нехитрые притязания коих к любому виду визуального искусства заключаются в жажде лицезреть главного героя, облаченного в баснословно дорогую одежду на пару размеров меньше, и чьи неистовые копуляции с рандомным счастливцами из сайдовых персонажей можно описывать в фанфиках смачно и неоднократно; а «Elementary» силится доказать всему миру, что осовремененный мистер Холмс и мисс Ватсон могут быть действительно интересными, многомерными персонажами, связанными — о небо! — только дружбой и прекрасно прописанной динамикой, «Гранчестер» тихо и невозмутимо, вдали от холиваров, продолжает традицию красивых и стройных британских детективов.
В пику всем мастям Шерлока протагонист «Гранчестера» отнюдь не эгоцентричный гений, не заклятый враг главы всего преступного мира и даже не наркоман. Сидни Чемберс, видите ли, всего-навсего священник, снедаемый призраками войны и вины. Еще он очарован джазом (особенно Беше), алкоголем и невыразимой прелести женщиной, переменившей девичью фамилию на новую (фамилия эта не Чемберс, увы). Да и в сыск Сидни втянуло тоже без особенной помпы, и расследованиями он занимается не с целью разминки серого вещества, а в искренней, иногда неуклюжей попытке помочь ближнему. Ну что с него взять? Друзьями не манипулирует, в психологическое насилии джаст фо фан тоже не силен. В какой фанфик его такого запихнуть?
Кроме того, проблематика «Гранчестера» настолько разнообразна, настолько удручающе правдоподобна (это вам не эпическое полотно, где Курчавое Добро три сезона подряд бьется с Человеческим Слабоумием не на живот, а на смерть), что после каждого эпизода возникает желание не включить следующий, а спокойно обдумать увиденное. Кстати, вот сюрприз, упоминание LGBTQ на экране не обращается в искрометную нестареющую шутку, а служит темой вполне серьезных сюжетов на тему приятия себя и других.
Единственное, чему может порадоваться натура, выдержанная на заграничных винах ярославского производства — женские персонажи. Они, к моему глубокому сожалению, поверхностны все. Даже великолепная Хильдегарда, раскрытая чуть-чуть больше иных, и очаровательная, не танцующая миссис М, главная mother figure всего сериала.
Каст чрезвычайно удачный. На руку играет и то, что он не изобилует топовыми звездами, мельтешащими на каждой второй интернет-странице, и то, что все актеры поддались путешествию в Британию пятидесятых не только без проблем, но и с явственным удовольствием.
Основной дуэт, Нортон (Сидни) и Грин (Джорди), просто искрит в присутствии друг друга.
Аль Уивер в роли Леонарда с легкостью растопит сердце самого закоренелого язычника и вероотступника.
А Тесса Пик-Джонс… неописуемого обаяния леди.
Словом, если вы чаете видеть в детективе детективные сюжеты, нетривиальные и интересные конфликты, хорошие (действительно хорошие, крепкие) сценарные и актерские работы, то «Гранчестер» ждет своего зрителя.
9 из 10
Формат : AVI
Формат/Информация : Audio Video Interleave
Размер файла : 490 Мбайт
Продолжительность : 45 м.
Общий поток : 1507 Кбит/сек
Название фильма : Grantchester.S02E01.[pirat.ca]
Программа кодирования : VirtualDubMod 1.5.10.2 (build 2540/release)
Видео
Идентификатор : 0
Формат : xvid
Идентификатор кодека : xvid
Продолжительность : 45 м.
Битрейт : 1305 Кбит/сек
Ширина : 720 пикселей
Высота : 404 пикселя
Соотношение сторон : 16:9
Частота кадров : 25,000 кадров/сек
Бит/(Пиксели*Кадры) : 0.179
Размер потока : 425 Мбайт (87%)
Аудио
Идентификатор : 1
Формат : AC-3
Формат/Информация : Audio Coding 3
Расширение режима : CM (complete main)
Параметр Endianness формата : Big
Идентификатор кодека : 2000
Продолжительность : 45 м.
Вид битрейта : Постоянный
Битрейт : 192 Кбит/сек
Каналы : 2 канала
Расположение каналов : Front: L R
Частота : 48,0 КГц
Частота кадров : 31,250 кадров/сек (1536 spf)
Метод сжатия : С потерями
Размер потока : 62,5 Мбайт (13%)
Выравнивание : Разделение по промежуткам
Продолжительность промежутка : 40 мс. (1,00 видеокадр)
Время предзагрузки промежутка : 500 мс.
Download / Скачать

Хотите скачать бесплатно? Зарегистрируйтесь на сайте (ссылка на регистрацию). Pirat.ca - самый быстрый торрент трекер в рунете!

Как скачивать  ·   Что такое торрент  ·   Рейтинг и ограничения

Показать сообщения:    
Ответить на тему

Текущее время: Сегодня 12:48

Часовой пояс: GMT + 4



Вы не можете начинать темы
Вы не можете отвечать на сообщения
Вы не можете редактировать свои сообщения
Вы не можете удалять свои сообщения
Вы не можете голосовать в опросах
Вы не можете прикреплять файлы к сообщениям
Вы не можете скачивать файлы

▼ Вниз