ML
     
  Уважаемый Гость!
Вы можете поддержать проект и зарегистрироваться у наших партнеров - онлайн-стратегия MyLands. При регистрации в игре Вы получите код, который сможете активировать после регистрации на pirat.ca и получить 1000 дублонов.

Ваш код:
5f4e94775bc0501caff7b254e79328d304c817d9
 
     

Слешер / Slasher / Сезон: 1 / Серии: 1-8 из 8 (Крэйг Дэвид Уоллес / Craig David Wallace) [2016 г., ужасы, детектив, триллер, WEB-DLRip] DVO

Ответить на тему
 
Автор
Сообщение

Пост 21-Апр-2016 03:58

[Q] 

somik

Легенда

-Слешер / Slasher-- Производство: США, Великобритания, Канада, Chiller Films, Shaftesbury, Super Channel
Жанр: ужасы, детектив, триллер
Год выпуска: 2016 г.
Продолжительность: 00:50:00
Мировая премьера: 4 марта 2016
Перевод: Любительский (двухголосый, закадровый)
Режиссер: Крэйг Дэвид Уоллес Craig David Wallace-В ролях: Кэти МакГрат, Брэндон Джей МакЛарен, Стив Байерс, Джессика Сайпос, Дэвид Патрик Флемминг, Шон Ахмед, Ашанти Бромфилд и др.-Описание: Сара Беннетт, молодая женщина, которая возвращается в небольшой город, где родилась, и обнаруживает себя в центре ужасающей серии убийств, основанных на широко известном убийстве её родителей. Вскоре все, кто окружает Сару, становятся подозреваемыми или жертвами, по мере того, как убийств становится всё больше и раскрываются давно похороненные секреты. Сара начинает допрашивать всех и каждого вокруг себя, включая своего мужа Дилана.-
Качество видео: WEB-DLRip
Контейнер: AVI
Видео кодек: XviD
Аудио кодек: AC3
Видео: Video: 720x400 (1.80:1), 47.952 fps, XviD build 50 ~1500 kbps avg, 0.11 bit/pixel
Аудио: Audio: 48 kHz, AC3 Dolby Digital, 2/0 (L,R) ch, ~192 kbps
Cубтитры: отсутствуют
Здесь кто-нибудь есть?
Да здравствует банальность!
«Такс, такс, такс, что тут у нас? Слэшер, слэшер!… Наконец-то»
С такими словами я начинал смотреть данный сериал, скажу сразу: был настроен позитивно и легко. В жизни пересмотрел уже большую кучу ужастиков-слэшеров: и великолепный «Крик» 1996 года, и «Пятница 13-ое» 1980. В том году канал «MTV» запустил тенденцию снимать сериал в жанре слэшер по мотиву того же «Крика». Были подобные проекты и ранее, вспомнить «Милых Обманщиц», которые не сильно изобиловали кровью и жестокостью. После просмотра остался в негативе.
Так вот, малоизвестный канал «Chiller», который специализируется лишь на ужасах, решает запустить свой первый сериал-хоррор. Я смотрел только 2 серии, поэтому оцениваю не очень строго. Но мнение уже сформировалось. Сказать, что сериал получился — это ничего не сказать. Он до жути банален, скучен и предсказуем. Убивают всех направо и налево. Толком не успевают раскрыть персонажей, и уже убивают за какие-то проступки. Все попросту глупо. Даже если убийца преследует мотивы убить главную героиню, а почему он её не убил когда мог? Возможность была, и еще какая. Логика всех слэшеров всегда была такой. Могли бы сломать концепцию, тогда был бы шедевр.
Сюжет:
«Скажу только одно слово: БАНАЛЬНОСТЬ»
У главной героини в тот момент, когда она была в утробе матери, убивает родителей какой-то псих. Через 20-25 лет она приезжает обратно и заселяется в тот дом, где все и произошло. Тут начинается «РЕЗНЯ».
Актеры:
Не впечатлили, что еще говорить не знаю? Банальные и скучные. Создатели хотели угодить секс-меньшинствам, а то в наше время «сериал без геев — уже не сериал». Ну хотя они не мешают, и сольют их по видимому быстро.
Все-таки сделаю рецензию нейтральной, потому что сериал только вышел. Надеюсь, создатели подготовили под конец, что-то стоящее, а не простой, банальный ужастик.
После просмотра 2 серии ставлю:
6 из 10
Формат : AVI
Формат/Информация : Audio Video Interleave
Размер файла : 630 Мбайт
Продолжительность : 51 м.
Общий поток : 1707 Кбит/сек
Название фильма : Slasher.E01.[pirat.ca]
Программа кодирования : Lavf54.59.107
Видео
Идентификатор : 0
Формат : MPEG-4 Visual
Профиль формата : Advanced [email protected]
Параметр BVOP формата : 2
Параметр QPel формата : Нет
Параметр GMC формата : Без точки перехода
Параметр матрицы формата : Default (H.263)
Идентификатор кодека : XVID
Идентификатор кодека/Подсказка : XviD
Продолжительность : 51 м.
Битрейт : 1499 Кбит/сек
Ширина : 720 пикселей
Высота : 400 пикселей
Соотношение сторон : 16:9
Частота кадров : 47,952 кадров/сек
Частота кадров в оригинале : 23,976 (24000/1001) кадра/сек
Цветовое пространство : YUV
Субдискретизация насыщенности : 4:2:0
Битовая глубина : 8 бит
Тип развёртки : Прогрессивная
Метод сжатия : С потерями
Бит/(Пиксели*Кадры) : 0.109
Размер потока : 553 Мбайт (88%)
Библиотека кодирования : XviD 1.2.1 (UTC 2008-12-04)
Аудио
Идентификатор : 1
Формат : AC-3
Формат/Информация : Audio Coding 3
Расширение режима : CM (complete main)
Параметр Endianness формата : Big
Идентификатор кодека : 2000
Продолжительность : 51 м.
Вид битрейта : Постоянный
Битрейт : 192 Кбит/сек
Каналы : 2 канала
Расположение каналов : Front: L R
Частота : 48,0 КГц
Частота кадров : 31,250 кадров/сек (1536 spf)
Битовая глубина : 16 бит
Метод сжатия : С потерями
Задержка видео : 4 с. 512 мс.
Размер потока : 70,9 Мбайт (11%)
Выравнивание : Разделение по промежуткам
Продолжительность промежутка : 32 мс. (1,53 видеокадра)
Download / Скачать

Хотите скачать бесплатно? Зарегистрируйтесь на сайте (ссылка на регистрацию). Pirat.ca - самый быстрый торрент трекер в рунете!

Как скачивать  ·   Что такое торрент  ·   Рейтинг и ограничения

somik ®

Легенда

26521

Пост 21-Апр-2016 04:00 (спустя 2 минуты)

[Q] 

Извините: присутствует реклама, что мог обрезал. Любители жанра, прежде чем скачивать - прочитайте рецензию.

_________________
Всё когда-нибудь уже было... В интернете!
[Профиль]  [ЛС] 

Псих

87

Пост 21-Апр-2016 13:27 (спустя 9 часов)

[Q] 

somik, за старания спасибо, толку от этой рецензии? у каждого свое мнение будет при просмотре данного сериала. У меня, как у любителя такого жанра сериалов, а именно: ужасы, триллер, мистика, детектив - сложилось довольно таки положительное мнение, т.е для кого-то такой сериал будет интересен, а для кого-то он будет не ахти, т.е можно сделать вывод что этот сериал На любителя

_________________
Не забываем говорить
[Профиль]  [ЛС] 
Показать сообщения:    
Ответить на тему

Текущее время: Сегодня 15:38

Часовой пояс: GMT + 4



Вы не можете начинать темы
Вы не можете отвечать на сообщения
Вы не можете редактировать свои сообщения
Вы не можете удалять свои сообщения
Вы не можете голосовать в опросах
Вы не можете прикреплять файлы к сообщениям
Вы не можете скачивать файлы

▼ Вниз