ML
     
  Уважаемый Гость!
Вы можете поддержать проект и зарегистрироваться у наших партнеров - онлайн-стратегия MyLands. При регистрации в игре Вы получите код, который сможете активировать после регистрации на pirat.ca и получить 1000 дублонов.

Ваш код:
9cfe162481db953a6549f32179d7b3900b8b8643
 
     

Оттенки синего / Shades of Blue (Дэн Лернер / Dan Lerner) [2016 г., Драма, детектив, WEB-DLRip] MVO (NewStudio) + Original (Eng)

Ответить на тему
 
Автор
Сообщение

Пост 21-Апр-2016 06:03

[Q] 

somik

Легенда

-Оттенки синего / Shades of Blue-- Производство: США, ADI TV Studios, EGTV Productions, Jack Orman Production, Nuyorican Productions, Ryan Seacrest Productions, Universal TV
Год выпуска: 2016 г.
Жанр: Драма, детектив
Продолжительность: 00:42:00
Мировая премьера: 7 января 2016
Перевод: Профессиональный (многоголосый, закадровый) [NewStudio]
Оригинальный аудиопоток: английский
Режиссер: Дэн Лернер / Dan Lerner-В ролях: Дженнифер Лопес, Рэй Лиотта, Дреа Де Маттео, Уоррен Коул, Дайо Окенийи, Сара Джеффри, Линн Марокола, Лесли Силва, Кэтрин Кейтс, Дин Гейер-Описание: В одной из частей Нью-Йорка, которую курирует полицейский участок, руководимый лейтенантом Возняком, преступность практически искоренена, но не самым законным методом — полиция просто прибрала под себя весь криминальный бизнес. «Крыша» прикрывает наркодилеров, скупщиков краденого и прочих нарушителей закона за небольшой процент. Детектив Харли Сантос — мать-одиночка, которой честной зарплаты не хватает на то, чтобы дочь училась в престижной школе, поэтому она вместе с другими копами повязана в черных делах своего шефа. Во время очередного обхода владений с целью получения регулярной дани Сантос попадается на удочку спецотдела ФБР, в обмен на восстановление репутации и свободу Харли предлагают стать «кротом» в собственном участке. Выбор перед детективом стоит непростой: возможность быть рядом с дочерью, с одной стороны, и предательство тех людей, которых она еще утром называла «семьей», — с другой…-
Качество видео: WEB-DLRip
Контейнер: AVI
Видео кодек: XviD
Аудио кодек: MP3
Видео: Video: 720x400 (1.80:1), 23.976 fps, XviD build 73 ~1526 kbps avg, 0.22 bit/pixel
Аудио: Audio #1: 48 kHz, MPEG Layer 3, 2 ch, ~128.00 kbps avg
Аудио #2: Audio #2: 48 kHz, MPEG Layer 3, 2 ch, ~128.00 kbps avg
Cубтитры: отсутствуют
Все оттенки синего
Приступая к просмотру данного сериала, я не ожидала ничего особенного, так как заявленная в главной роли Дженнифер Лопес никак не вдохновляла на просмотр.
Но Рэй Лиотта перевесил. Очень ценю этого актера, по-моему весьма и весьма неоцененного в свое время.
Ну что сказать — отсмотрена половина первого сезона на «ура». И говоря начистоту, не могу сказать, что Джей Ло тут слабое звено. Напротив, она старается и у нее неплохо получается играть свою неоднозначную героиню, которой и сочувствуешь, и которую в чем-то винишь.
Ее детектив Сантос — одинокая женщина, воспитывающая дочь, и безумно желающая дать ей самое лучшее. Девочка спит на розовых облаках и видимо не в курсе реальных зарплат полицейских, так как с детства она видит только лучшие школы, дорогие факультативы и уроки музыки. Харли Сантос на все готова пойти ради дочери, что и толкает ее в конце концов на скользкую дорожку.
«Криминальный круг» самого обычного на первый взгляд детективного отделения Нью-Йорка на первый взгляд кажется милой семьей, но на поверку все не так просто. Взятки, рэкет и откаты — вот что является реальностью нескольких полицейских, которым, надо отдать должное сценаристам, подарены определенные характеры.
Попавшись в западню, устроенную ФБР, Сантос вынуждена стать кротом в родном департаменте, и вот тут-то и начинается то, за чем стоит пристально наблюдать.
Рэй Лиотта в роли матерого волка, который ни на пядь не хочет уступить свое лидерство в непростой для него и остальных ситуации, вызывает неподдельное восхищение. Это класс, за которым нельзя не наблюдать без восхищения.
8 из 10
Формат : AVI
Формат/Информация : Audio Video Interleave
Размер файла : 550 Мбайт
Продолжительность : 42 м.
Общий поток : 1797 Кбит/сек
Название фильма : Shades.of.Blue.S01E01.WEB-DLRip.RusEng.NewStudio.L
Программа кодирования : VirtualDubMod 1.5.10.3 (build 2550/release)
Видео
Идентификатор : 0
Формат : MPEG-4 Visual
Профиль формата : Advanced [email protected]
Параметр BVOP формата : 1
Параметр QPel формата : Нет
Параметр GMC формата : Без точки перехода
Параметр матрицы формата : Default (H.263)
Идентификатор кодека : XVID
Идентификатор кодека/Подсказка : XviD
Продолжительность : 42 м.
Битрейт : 1527 Кбит/сек
Ширина : 720 пикселей
Высота : 400 пикселей
Соотношение сторон : 16:9
Частота кадров : 23,976 (23976/1000) кадра/сек
Цветовое пространство : YUV
Субдискретизация насыщенности : 4:2:0
Битовая глубина : 8 бит
Тип развёртки : Прогрессивная
Метод сжатия : С потерями
Бит/(Пиксели*Кадры) : 0.221
Размер потока : 467 Мбайт (85%)
Библиотека кодирования : XviD 73
Аудио #1
Идентификатор : 1
Формат : MPEG Audio
Версия формата : Version 1
Профиль формата : Layer 3
Режим : Joint stereo
Расширение режима : MS Stereo
Идентификатор кодека : 55
Идентификатор кодека/Подсказка : MP3
Продолжительность : 42 м.
Вид битрейта : Постоянный
Битрейт : 128 Кбит/сек
Каналы : 2 канала
Частота : 48,0 КГц
Метод сжатия : С потерями
Размер потока : 39,2 Мбайт (7%)
Выравнивание : Соединение по промежуткам
Продолжительность промежутка : 42 мс. (1,00 видеокадр)
Время предзагрузки промежутка : 504 мс.
Аудио #2
Идентификатор : 2
Формат : MPEG Audio
Версия формата : Version 1
Профиль формата : Layer 3
Режим : Joint stereo
Расширение режима : MS Stereo
Идентификатор кодека : 55
Идентификатор кодека/Подсказка : MP3
Продолжительность : 42 м.
Вид битрейта : Постоянный
Битрейт : 128 Кбит/сек
Каналы : 2 канала
Частота : 48,0 КГц
Метод сжатия : С потерями
Размер потока : 39,2 Мбайт (7%)
Выравнивание : Соединение по промежуткам
Продолжительность промежутка : 42 мс. (1,00 видеокадр)
Время предзагрузки промежутка : 504 мс.
Download / Скачать

Хотите скачать бесплатно? Зарегистрируйтесь на сайте (ссылка на регистрацию). Pirat.ca - самый быстрый торрент трекер в рунете!

Как скачивать  ·   Что такое торрент  ·   Рейтинг и ограничения

Показать сообщения:    
Ответить на тему

Текущее время: Сегодня 06:03

Часовой пояс: GMT + 4



Вы не можете начинать темы
Вы не можете отвечать на сообщения
Вы не можете редактировать свои сообщения
Вы не можете удалять свои сообщения
Вы не можете голосовать в опросах
Вы не можете прикреплять файлы к сообщениям
Вы не можете скачивать файлы

▼ Вниз