ML
     
  Уважаемый Гость!
Вы можете поддержать проект и зарегистрироваться у наших партнеров - онлайн-стратегия MyLands. При регистрации в игре Вы получите код, который сможете активировать после регистрации на pirat.ca и получить 1000 дублонов.

Ваш код:
cc3be08b7507661c03e0a2f582d0da3a659ea55a
 
     

Однажды в сказке / Once Upon a Time / Сезон: 3 / Серии: 1-22 (22) (Дин Уайт / Dean White, ...) [2013 г., фэнтези, мелодрама, приключения, BDRip, 720p] Dub (НеваФильм) + DVO (Кубик в Кубе) + Original (Eng) + Sub (Eng)

Ответить на тему
 
Автор
Сообщение

Пост 22-Апр-2016 00:28

[Q] 

TERMOS

Легенда

-Однажды в сказке / Once Upon a Time
«Добро пожаловать в Сторибрук»
(3 сезон)
-- Производство: США
Жанр: фэнтези, мелодрама, приключения
Год выпуска: 2013 г.
Продолжительность: 22x ~00:45:00
Перевод: Профессиональный (полное дублирование) [НеваФильм]
Перевод 2: Профессиональный (двухголосый, закадровый) [Кубик в Кубе]
Оригинальный аудиопоток: английский
Режиссер: Дин Уайт / Dean White, Ральф Хемекер / Ralph Hemecker, Дэвид Соломон / David Solomon, ...-В ролях: Дженнифер Моррисон, Джиннифер Гудвин, Лана Паррия, Джошуа Даллас, Джаред Гилмор, Роберт Карлайл, Рафаэль Сбардж, Меган Ори, Эмили де Рэвин, Колин О’Донохью, ...-Описание: Сюжет фэнтези разворачивается в двух мирах - современном и сказочном. Жизнь 28-летней Эммы Свон меняется, когда ее 10-летний сын Генри, от которого она отказалась много лет назад, находит Эмму и объявляет, что она является дочерью Прекрасного Принца и Белоснежки. Само собой разумеется, у мальчишки нет никаких сомнений, что параллельно нашему существует альтернативный сказочный мир – город Сторибрук, в котором в итоге оказывается Эмма. Постепенно героиня привязывается к необычному мальчику и странному городу, жители которого «забыли», кем они были в прошлом. А все из-за проклятия Злой Королевы (по совместительству приемной матери Генри), с помощью которого колдунья остановила время в сказочной стране. Однако стоит протянуть руку - и сказка оживет. Эпическая битва за будущее двух миров начинается, но, чтобы одержать победу, Эмме придется принять свою судьбу...
- -Качество видео: BDRip
Источник: Once.Upon.A.Time.S03.720p.BluRay.DTS.x264-TayTO
Контейнер: MKV
Стандарт разрешения: 720p
Видео кодек: H.264/AVC
Аудио кодек: AC3
Видео: 1280x720 at 23.976 fps, ~9000 kbps avg
Аудио: Russian: 48 kHz, AC3, 2/0 (L,R) ch, ~192.00 kbps avg |Дубляж, НеваФильм|
Аудио #2: Russian: 48 kHz, DTS, 3/2 (L,C,R,l,r) + LFE ch, ~1510.00 kbps avg |Двухголосый закадровый, Кубик в Кубе|
Аудио #3: English: 48 kHz, DTS, 3/2 (L,C,R,l,r) + LFE ch, ~1510.00 kbps avg
Cубтитры: английские
01. The Heart of Truest Believer / Сердце того, кто верит
02. Lost Girl / Потерянная девочка
03. Quite a Common Fairy / Самая обычная фея
04. Nasty Habits / Вредные привычки
05. Good Form / Хорошая форма
06. Ariel / Ариэль
07. Dark Hollow / Тёмная впадина
08. Think Lovely Thoughts / Думайте о хорошем
09. Save Henry / Спасите Генри
10. The New Neverland / Новая Волшебная Страна
11. Going Home / Путь Домой
12. New York City Serenade / Нью-Йоркская серенада
13. Witch Hunt / Охота на ведьм
14. The Tower / Башня
15. Quiet Minds / Спокойный характер
16. It's Not Easy Being Green / Быть зелёной нелегко
17. The Jolly Roger / Весёлый Роджер
18. Bleeding Through / Истекая кровью
19. A Curious Thing / Любопытная вещь
20. Kansas / Канзас
21. Snow Drifts / Снежный занос
22. There's No Place Like Home / Нет места лучше дома
Код:
Format                      : Matroska
Format version              : Version 2
File size                   : 3.86 GiB
Duration                    : 42mn 56s
Overall bit rate            : 12.9 Mbps
Encoded date                : UTC 2015-02-01 18:46:40
Writing application         : mkvmerge v5.5.0 ('Healer') built on Apr  6 2012 21:43:24
Writing library             : libebml v1.2.3 + libmatroska v1.3.0
Video
ID                          : 1
Format                      : AVC
Format/Info                 : Advanced Video Codec
Format profile              : [email protected]
Format settings, CABAC      : Yes
Format settings, ReFrames   : 9 frames
Codec ID                    : V_MPEG4/ISO/AVC
Duration                    : 42mn 56s
Bit rate                    : 9 413 Kbps
Width                       : 1 280 pixels
Height                      : 720 pixels
Display aspect ratio        : 16:9
Frame rate mode             : Constant
Frame rate                  : 23.976 fps
Color space                 : YUV
Chroma subsampling          : 4:2:0
Bit depth                   : 8 bits
Scan type                   : Progressive
Bits/(Pixel*Frame)          : 0.426
Stream size                 : 2.82 GiB (73%)
Writing library             : x264 core 133 r2334 a3ac64b
Encoding settings           : cabac=1 / ref=9 / deblock=1:-3:-3 / analyse=0x3:0x133 / me=umh / subme=10 / psy=1 / psy_rd=1.05:0.00 / mixed_ref=1 / me_range=24 / chroma_me=1 / trellis=2 / 8x8dct=1 / cqm=0 / deadzone=21,11 / fast_pskip=1 / chroma_qp_offset=-2 / threads=12 / lookahead_threads=2 / sliced_threads=0 / nr=0 / decimate=1 / interlaced=0 / bluray_compat=0 / constrained_intra=0 / bframes=7 / b_pyramid=2 / b_adapt=2 / b_bias=0 / direct=3 / weightb=1 / open_gop=0 / weightp=2 / keyint=250 / keyint_min=23 / scenecut=40 / intra_refresh=0 / rc=crf / mbtree=0 / crf=15.0 / qcomp=0.75 / qpmin=0 / qpmax=69 / qpstep=4 / ip_ratio=1.28 / pb_ratio=1.13 / aq=2:0.75
Default                     : Yes
Forced                      : No
Color primaries             : BT.709
Transfer characteristics    : BT.709
Matrix coefficients         : BT.709
Color range                 : Limited
Audio #1
ID                          : 2
Format                      : AC-3
Format/Info                 : Audio Coding 3
Mode extension              : CM (complete main)
Format settings, Endianness : Big
Codec ID                    : A_AC3
Duration                    : 42mn 56s
Bit rate mode               : Constant
Bit rate                    : 192 Kbps
Channel(s)                  : 2 channels
Channel positions           : Front: L R
Sampling rate               : 48.0 KHz
Bit depth                   : 16 bits
Compression mode            : Lossy
Stream size                 : 59.0 MiB (1%)
Title                       : НеваФильм
Language                    : Russian
Default                     : Yes
Forced                      : No
Audio #2
ID                          : 3
Format                      : DTS
Format/Info                 : Digital Theater Systems
Mode                        : 16
Format settings, Endianness : Big
Codec ID                    : A_DTS
Duration                    : 42mn 56s
Bit rate mode               : Constant
Bit rate                    : 1 509 Kbps
Channel(s)                  : 6 channels
Channel positions           : Front: L C R, Side: L R, LFE
Sampling rate               : 48.0 KHz
Bit depth                   : 24 bits
Compression mode            : Lossy
Stream size                 : 464 MiB (12%)
Title                       : Кубик в Кубе
Language                    : Russian
Default                     : No
Forced                      : No
Audio #3
ID                          : 4
Format                      : DTS
Format/Info                 : Digital Theater Systems
Mode                        : 16
Format settings, Endianness : Big
Codec ID                    : A_DTS
Duration                    : 42mn 56s
Bit rate mode               : Constant
Bit rate                    : 1 509 Kbps
Channel(s)                  : 6 channels
Channel positions           : Front: L C R, Side: L R, LFE
Sampling rate               : 48.0 KHz
Bit depth                   : 24 bits
Compression mode            : Lossy
Stream size                 : 464 MiB (12%)
Language                    : English
Default                     : No
Forced                      : No
Text
ID                          : 5
Format                      : UTF-8
Codec ID                    : S_TEXT/UTF8
Codec ID/Info               : UTF-8 Plain Text
Title                       : SDH
Language                    : English
Default                     : No
Forced                      : No
Menu
00:00:00.000                : en:00:00:00.000
00:02:10.630                : en:00:02:10.630
00:10:31.798                : en:00:10:31.798
00:15:06.614                : en:00:15:06.614
00:21:59.235                : en:00:21:59.235
00:26:28.545                : en:00:26:28.545
00:32:56.600                : en:00:32:56.600
00:42:18.119                : en:00:42:18.119
Download / Скачать

Хотите скачать бесплатно? Зарегистрируйтесь на сайте (ссылка на регистрацию). Pirat.ca - самый быстрый торрент трекер в рунете!

Как скачивать  ·   Что такое торрент  ·   Рейтинг и ограничения



Последний раз редактировалось: TERMOS (2016-04-22 00:34), всего редактировалось 1 раз

TERMOS ®

Легенда

12058

Пост 22-Апр-2016 00:34 (спустя 5 минут)

[Q] 

Да уж. ПО лютуют. Этот сериал пропадает в сети. Источник тоже скрыл. Пусть будет тут. 4-й сезон в таком же качестве попозже... al

_________________
[Профиль]  [ЛС] 

Пост 22-Апр-2016 02:47 (спустя 2 часа 13 минут)

Топик был перенесен из форума Зарубежные сериалы (Трюм) в форум Зарубежные сериалы
Андря
 
Показать сообщения:    
Ответить на тему

Текущее время: Сегодня 05:07

Часовой пояс: GMT + 4



Вы не можете начинать темы
Вы не можете отвечать на сообщения
Вы не можете редактировать свои сообщения
Вы не можете удалять свои сообщения
Вы не можете голосовать в опросах
Вы не можете прикреплять файлы к сообщениям
Вы не можете скачивать файлы

▼ Вниз