ML
     
  Уважаемый Гость!
Вы можете поддержать проект и зарегистрироваться у наших партнеров - онлайн-стратегия MyLands. При регистрации в игре Вы получите код, который сможете активировать после регистрации на pirat.ca и получить 1000 дублонов.

Ваш код:
500cb7bd8d2cec9a8aba647a87ce41c4b76f06bd
 
     

Искатель / The Finder / Сезон: 1 / Серии: 1-13 (Дэниэл Сакхайм / Daniel Sackheim, Дэвид Бореаназ / David Boreanaz и др...) [2012 г., драма, комедия, криминал, WEB-DLRip] Dub [+ Original (Eng)] (ТВ3 (ROOM13))

Ответить на тему
 
Автор
Сообщение

Пост 23-Апр-2016 13:01

[Q] 

somik

Легенда

-Искатель / The Finder-- Производство: США, 20th Century Fox Television, Far Field Productions, Josephson Entertainment
Жанр: драма, комедия, криминал
Год выпуска: 2012 г.
Продолжительность: 00:43:00
Мировая премьера: 12 января 2012
Российская премьера: 9 июля 2012
Перевод: Профессиональный (полное дублирование) [ТВ3 (ROOM13)]
Оригинальный аудиопоток: английский
Режиссер: Дэниэл Сакхайм / Daniel Sackheim, Дэвид Бореаназ / David Boreanaz и др...-В ролях: Майкл Кларк Дункан, Мэдди Хассон, Мерседес Масун, Джофф Стульц, Шарлин Амойя, Майкл Бауэр, Майкл Гамбино, Патрик Роберт Смит, Рой Вернер и др.-Описание: Сериал о бывшем полицейском Уолтере Шермане по прозвищу «Локатор» — личности весьма эксцентричной и скептически ко всему настроенной. Однако, благодаря своей поистине уникальной способности находить все мыслимое и немыслимое Шерман является востребованным человеком. Кстати, он работает не один — во всех делах ему помогает его напарник Лео.-
Качество видео: WEB-DLRip
Контейнер: AVI
Видео кодек: XviD
Аудио кодек: MP3
Видео: Video: 720x400 (1.80:1), 23.976 fps, XviD build 64 ~1313 kbps avg, 0.19 bit/pixel
Аудио: Audio #1: 48 kHz, MPEG Layer 3, 2 ch, ~128.00 kbps avg
Аудио #2: Audio #2: 48 kHz, MPEG Layer 3, 2 ch, ~128.00 kbps avg
Cубтитры: отсутствуют
3 сентября, 2012 от сердечного приступа скончался в 54 года исполнитель одной из главных ролей Майкл Кларк Дункан.
Сериал был закрыт.
Этот сериал, без сомнения, был бы отмечен массой премий.
Он сразу привлёк к себе острое внимание как зрителей так и критиков.
Его популярность взлетела до уровня кроссоверов: "Кости" и "Обмани меня".
Но этот пилотный сезон стал лебединой песней для любимого актера Майкла Кларка Дункана,
многие фильмы, которого, доснимались без него... somik
Отличная история
Когда я увидела серию про искателя (звучит круче, чем сыщик) Уолтера в «Bones», то сразу же влюбилась в персонажа и его помощника Лео, прекрасного М. К. Дункана.
В голове возникла мысль, что было бы супер, если бы сделали сериал про этих парней. Время шло, и вдруг я совершенно нечаянно наткнулась на этот сериал. И о, слава небесам, когда я поняла, что это спин-офф Костей. Моей радости не было предела!
Мне нравится, что создатели не забывают о том, что это мир где живут и радуются не только герои the Finder, но и Bones. И встречи со Свитсом и Ходженсом очень забавляют.
Сериал очень веселый и легкий, конечно есть нотки драматизма, и это делает сериал еще более интересным.
Уолтер со своей способностью к поиску, и своим странным, для многих, поведением. Мне очень нравится этот герой, и каждый раз меня смешит его «Кто это?».
Сериал хорош, и мне очень грустно, что рейтинги сериала небольшие. Меня вообще удивляет то, что люди будут смотреть сериалы со слащавыми актерами канала CW и восторгаться ими, и упускать такие хорошие и качественные проекты канала Fox.
Настоятельно рекомендую сериал не только поклонникам Костей, но и другим, заинтересованным в хорошем шоу людей.
10 из 10
Формат : AVI
Формат/Информация : Audio Video Interleave
Размер файла : 500 Мбайт
Продолжительность : 44 м.
Общий поток : 1584 Кбит/сек
Программа кодирования : VirtualDubMod 1.5.10.2 (build 2540/release)
Библиотека кодирования : VirtualDubMod build 2540/release
Видео
Идентификатор : 0
Формат : MPEG-4 Visual
Профиль формата : Advanced [email protected]
Параметр BVOP формата : 2
Параметр QPel формата : Нет
Параметр GMC формата : Без точки перехода
Параметр матрицы формата : Default (MPEG)
Идентификатор кодека : XVID
Идентификатор кодека/Подсказка : XviD
Продолжительность : 44 м.
Битрейт : 1314 Кбит/сек
Ширина : 720 пикселей
Высота : 400 пикселей
Соотношение сторон : 16:9
Частота кадров : 23,976 (23976/1000) кадра/сек
Цветовое пространство : YUV
Субдискретизация насыщенности : 4:2:0
Битовая глубина : 8 бит
Тип развёртки : Прогрессивная
Метод сжатия : С потерями
Бит/(Пиксели*Кадры) : 0.190
Размер потока : 415 Мбайт (83%)
Библиотека кодирования : XviD 64
Аудио #1
Идентификатор : 1
Формат : MPEG Audio
Версия формата : Version 1
Профиль формата : Layer 3
Режим : Joint stereo
Расширение режима : MS Stereo
Идентификатор кодека : 55
Идентификатор кодека/Подсказка : MP3
Продолжительность : 44 м.
Вид битрейта : Постоянный
Битрейт : 128 Кбит/сек
Каналы : 2 канала
Частота : 48,0 КГц
Метод сжатия : С потерями
Размер потока : 40,4 Мбайт (8%)
Выравнивание : Соединение по промежуткам
Продолжительность промежутка : 42 мс. (1,00 видеокадр)
Время предзагрузки промежутка : 504 мс.
Аудио #2
Идентификатор : 2
Формат : MPEG Audio
Версия формата : Version 1
Профиль формата : Layer 3
Режим : Joint stereo
Расширение режима : MS Stereo
Идентификатор кодека : 55
Идентификатор кодека/Подсказка : MP3
Продолжительность : 44 м.
Вид битрейта : Постоянный
Битрейт : 128 Кбит/сек
Каналы : 2 канала
Частота : 48,0 КГц
Метод сжатия : С потерями
Размер потока : 40,4 Мбайт (8%)
Выравнивание : Соединение по промежуткам
Продолжительность промежутка : 42 мс. (1,00 видеокадр)
Время предзагрузки промежутка : 504 мс.
Download / Скачать

Хотите скачать бесплатно? Зарегистрируйтесь на сайте (ссылка на регистрацию). Pirat.ca - самый быстрый торрент трекер в рунете!

Как скачивать  ·   Что такое торрент  ·   Рейтинг и ограничения

somik ®

Легенда

26839

Пост 23-Апр-2016 13:07 (спустя 6 минут)

[Q] 

Может быть уважаемые Модераторы смогут поставить этому шедевральному сериалу "золото", что бы его могли посмотреть все желающие? Любителям "Кости" и "Обмани меня", ценителям искусства Майкла Кларка Дункана смотреть обязательно!somik, Всем качать!!!

_________________
Всё когда-нибудь уже было... В интернете!
[Профиль]  [ЛС] 
Показать сообщения:    
Ответить на тему

Текущее время: Сегодня 01:49

Часовой пояс: GMT + 4



Вы не можете начинать темы
Вы не можете отвечать на сообщения
Вы не можете редактировать свои сообщения
Вы не можете удалять свои сообщения
Вы не можете голосовать в опросах
Вы не можете прикреплять файлы к сообщениям
Вы не можете скачивать файлы

▼ Вниз