ML
     
  Уважаемый Гость!
Вы можете поддержать проект и зарегистрироваться у наших партнеров - онлайн-стратегия MyLands. При регистрации в игре Вы получите код, который сможете активировать после регистрации на pirat.ca и получить 1000 дублонов.

Ваш код:
8b752b428cf60a012c159dcae592cd1392170115
 
     

Зов Крови / Потерянная / Фэйри / Lost Girl / Сезон: 1 / Серии: 1-13 из 13 (Стив ДиМарко / Steve DiMarco...) [2010 г., фэнтези, HDRip] MVO (AXN Sci-Fi Россия) + Original (Eng)

Ответить на тему
 
Автор
Сообщение

Пост 25-Апр-2016 06:21

[Q] 

somik

Легенда

-Зов Крови / Потерянная / Фэйри / Lost Girl-- Производство: Канада, Bo Series, Prodigy Pictures
Жанр: фэнтези
Год выпуска: 2010 г.
Продолжительность: 00:44:00
Мировая премьера: 12 сентября 2010
Российская премьера: 12 апреля 2011
Перевод: Профессиональный (многоголосый, закадровый) [AXN Sci-Fi Россия]
Оригинальный аудиопоток: английский
Режиссер: Стив ДиМарко / Steve DiMarco...-В ролях: Анна Силк, Кристен Холден-Рид, Ксения Соло, Ричард Хоуланд, К.К. Коллинз, Зои Палмер, Кле Беннетт, Арон Тэйджер, Эммануэль Вожье, Джефф Кэссел и др.-Описание: Бо — суккуб. Выросшая в человеческой семье она не знала о своей истинной природе, считая себя фриком, а неумение контролировать сверхъестественный голод сделало ее одинокой беглянкой, оставляющей после себя череду трупов. Все меняется, когда Бо попадает в поле зрения кланов Фэйри, объяснивших ей кто она. Не желая выбирать между кланами Света и Тьмы, Бо решает занять сторону людей. Ей помогают юная русская воровка Кензи, детектив-оборотень Дайсон и доктор Лорен, занимающаяся изучением Фэйри.-
Качество видео: HDRip
Контейнер: AVI
Видео кодек: XviD
Аудио кодек: MP3
Видео: 624x352 (1.77:1), 23.976 fps, XviD build 47 ~1011 kbps avg, 0.19 bit/pixel
Аудио: 48 kHz, MPEG Layer 3, 2 ch, ~128.00 kbps avg
Аудио #2: 48 kHz, MPEG Layer 3, 2 ch, ~128.00 kbps avg
Cубтитры: отсутствуют
«Зов кро́ви», также известен как «Поте́рянная» и «Фэ́йри» (англ. Lost Girl) — канадский телесериал в жанре фэнтези и криминальной драмы. Премьера сериала состоялась в Канаде 12 сентября 2010 года на канале Showcase. Почти сразу сериал продлили на второй сезон.
9 декабря 2011 года телеканал сообщил, что шоу продлено на третий сезон, съёмки которого начались весной 2012 года. В третьем сезоне должно было быть больше эпизодов, но из-за беременности Анны Силк его разбили на два сезона по одному сюжету. 28 февраля 2013 года сериал был продлён на четвёртый сезон, а 27 февраля 2014 года сериал получил финальный пятый сезон
Canwest выпустила пресс-релиз, объявив, что аудитория пилотного эпизода составила более 400000, и около 184000 зрителей смотрели второй эпизод, что делает его «самым популярным канадским сериалом за всё время существования Showcase».
Эпизодом, убедившим канал снимать полный первый сезон сериала, был не первый эпизод, а восьмой — «Векс».
Специально для сериала был выпущен мини-комикс «Lost Girl» с предысторией главной героини
2011 — номинация на «DGC Craft Award» в категориях:
«Художник постановщик в телевизионном сериале» — Иэн Брок за эпизод «Векс»;
«Звуковой монтаж телевизионного сериала» — Том Бджелик, Алекс Баллик, Джеймс Робб, Джон Лэйн за эпизод «Удача и смерть».
2011 — победа Ксении Соло в награде «Джемини» в категории «Лучшее выступление актрисы в роли второго плана в драматическом сериале».
«Life is hard when you don’t know who you are…»
Смотреть начала чисто из за любви к фантастике и фэнтези. Сериал очень понравился, хоть и не тянет на великий шедевр.
Сюжет типичный — девушка, выросшая в обычной семье, случайно узнает о своей истинной природе и из-за этого становится беглянкой на долгие годы до тех пор, пока она попадает к Фэйри, где ей объясняют, кто она. Вроде ничего особенного НО — в ней есть какая то изюминка, заставляющая меня и дальше смотреть его.
Актёры молодцы, со своими ролями справляются хорошо. Также, хотелось рассказать о некоторых из них:
Бо (Анна Силк) — девушка, выросшая в обычной семье, не зная о своей истинной природе. Справедливая, смелая, но близко принимающая все к сердцу девушка. Всегда готова придти на помощь и восстановить справедливость. На протяжении всего сериала она пытается выяснить свое происхождение, а также найти настоящих родителей.
Кензи (Ксения Соло) — авантюрная русская воровка, преданная подруга Бо, искренне любя ее, как сестру. Несмотря на воровские склонности, Кензи — добрый и душевный человек. Чаще всего попадает в нелепые ситуации, из за чего Бо постоянно приходится ее спасать.
Лорен (Зои Палмер) — доктор, изучающая фэйри. Влюбляется в Бо еще в первой серии и последняя тоже заинтересована в ней. Предана Эшу. Помогает Бо контролировать себя во время питания.
Дайсон (Крис Холден Рид) — оборотень, светлый фэйри. Отличается замкнутостью и жесткостью, но несмотря на это любит выпускать некоторые шуточки. Влюблен в Бо, из за чего он и Лорен часто спорили из за ее внимания. К сожалению, это не самый любимой мой персонаж
Хейл (К. К. Коллинз) — детектив и лучший друг Дайсона. Шутник и бабник, также является другом Кензи и часто попадает с ней в неловкие ситуации. По всему видимо они питают друг к другу нечто большее, чем просто дружба
Сериал снят неплохо, про спецэффекты промолчу — они здесь нужны как ни как, все же это фантастический сериал.
Дабы воздержаться от спойлеров ставлю сериалу:
8,5 из 10
Формат : AVI
Формат/Информация : Audio Video Interleave
Размер файла : 401 Мбайт
Продолжительность : 43 м.
Общий поток : 1283 Кбит/сек
Название фильма : 101 - It's a Fae, Fae, Fae, Fae World.[pirat.ca]
Программа кодирования : VirtualDubMod 1.5.10.2 (build 2542/release)
Видео
Идентификатор : 0
Формат : MPEG-4 Visual
Профиль формата : Advanced [email protected]
Параметр BVOP формата : 2
Параметр QPel формата : Нет
Параметр GMC формата : Без точки перехода
Параметр матрицы формата : Default (H.263)
Идентификатор кодека : XVID
Идентификатор кодека/Подсказка : XviD
Продолжительность : 43 м.
Битрейт : 1013 Кбит/сек
Ширина : 624 пикселя
Высота : 352 пикселя
Соотношение сторон : 16:9
Частота кадров : 23,976 (23976/1000) кадра/сек
Цветовое пространство : YUV
Субдискретизация насыщенности : 4:2:0
Битовая глубина : 8 бит
Тип развёртки : Прогрессивная
Метод сжатия : С потерями
Бит/(Пиксели*Кадры) : 0.192
Размер потока : 316 Мбайт (79%)
Библиотека кодирования : XviD 1.2.0.dev47 (UTC 2006-11-01)
Аудио #1
Идентификатор : 1
Формат : MPEG Audio
Версия формата : Version 1
Профиль формата : Layer 3
Идентификатор кодека : 55
Идентификатор кодека/Подсказка : MP3
Продолжительность : 43 м.
Вид битрейта : Постоянный
Битрейт : 128 Кбит/сек
Каналы : 2 канала
Частота : 48,0 КГц
Метод сжатия : С потерями
Размер потока : 40,0 Мбайт (10%)
Выравнивание : Соединение по промежуткам
Продолжительность промежутка : 42 мс. (1,00 видеокадр)
Время предзагрузки промежутка : 504 мс.
Библиотека кодирования : LAME3.97
Настройки программы : -m s -V 4 -q 2 -lowpass 17 -b 128
Аудио #2
Идентификатор : 2
Формат : MPEG Audio
Версия формата : Version 1
Профиль формата : Layer 3
Идентификатор кодека : 55
Идентификатор кодека/Подсказка : MP3
Продолжительность : 43 м.
Вид битрейта : Постоянный
Битрейт : 128 Кбит/сек
Каналы : 2 канала
Частота : 48,0 КГц
Метод сжатия : С потерями
Размер потока : 40,0 Мбайт (10%)
Выравнивание : Соединение по промежуткам
Продолжительность промежутка : 42 мс. (1,00 видеокадр)
Время предзагрузки промежутка : 504 мс.
Библиотека кодирования : LAME3.97
Настройки программы : -m s -V 4 -q 2 -lowpass 17 -b 128
Download / Скачать

Хотите скачать бесплатно? Зарегистрируйтесь на сайте (ссылка на регистрацию). Pirat.ca - самый быстрый торрент трекер в рунете!

Как скачивать  ·   Что такое торрент  ·   Рейтинг и ограничения

Пост 25-Апр-2016 17:29 (спустя 11 часов)

Топик был перенесен из форума Зарубежные сериалы (Трюм) в форум Зарубежные сериалы
erchine
 

ExArH

Шкипер

14

Пост 25-Апр-2016 20:30 (спустя 14 часов)

[Q] 

russkaya vorovka govoryasghaya na translite
[Профиль]  [ЛС] 

somik ®

Легенда

26680

Пост 25-Апр-2016 21:10 (спустя 40 минут)

[Q] 

Ксения Соло родилась 8 октября 1987 года в Латвии, в этом же году её семья переехала в Канаду. С раннего детства Ксения занималась балетом, но получив в 14 лет серьезную травму спины, вынуждена была оставить карьеру танцовщицы. Дебютировала в кино в 2000 году. Наиболее известна по ролям в фильме «Чёрный лебедь» и сериале «Зов крови».

_________________
Всё когда-нибудь уже было... В интернете!
[Профиль]  [ЛС] 
Показать сообщения:    
Ответить на тему

Текущее время: Сегодня 06:22

Часовой пояс: GMT + 4



Вы не можете начинать темы
Вы не можете отвечать на сообщения
Вы не можете редактировать свои сообщения
Вы не можете удалять свои сообщения
Вы не можете голосовать в опросах
Вы не можете прикреплять файлы к сообщениям
Вы не можете скачивать файлы

▼ Вниз