ML
     
  Уважаемый Гость!
Вы можете поддержать проект и зарегистрироваться у наших партнеров - онлайн-стратегия MyLands. При регистрации в игре Вы получите код, который сможете активировать после регистрации на pirat.ca и получить 1000 дублонов.

Ваш код:
73640f24f8a0f579e128ea7346fd2db2b1009143
 
     

Правосудие / Своя правда / Justified / Сезон: 3 / Серии: 1-13 из 13 (Адам Аркин / Adam Arkin...) [2012 г., боевик, триллер, драма, криминал, WEB-DLRip] MVO (Fox Crime)

Ответить на тему
 
Автор
Сообщение

Пост 26-Апр-2016 10:50

[Q] 

somik

Легенда

-Правосудие / Своя правда / Justified-- Производство: США, FX Productions, Nemo Film, Rooney McP Productions, Sony Pictures Television, Timberman-Beverly Productions
Жанр: боевик, триллер, драма, криминал
Год выпуска: 2012 г.
Продолжительность: 00:43:00
Мировая премьера: 17 января 2012
Перевод: Профессиональный (многоголосый, закадровый) [Fox Crime]
Режиссер: Адам Аркин / Adam Arkin...-В ролях: Тимоти Олифант / Timothy Olyphant ("Крепкий орешек 4", "Рок-звезда", "Ловец снов", "Хитмэн", "Я-четвёртый"), Натали Зиа / Natalie Zea ("Грязные мокрые деньги", "Жеребец"), Ник Сирси / Nick Searcy ("Изгой", "Беглец"), Джекоб Питтс / Jacob Pitts, Джоэль Картер / Joelle Carter, Уолтон Гоггинс / Walton Goggins, Уильям Рэгсдэйл / William Ragsdale-Описание: История федерального маршала Рейлана Гивенса, современного законоохранника, все еще придерживающегося старомодных взглядов на правосудие. Из-за его строгого морального кодекса Гивенс быстро становится мишенью как для преступников, так и для коллег.-
Качество видео: WEB-DLRip
Контейнер: MP4
Видео кодек: MPEG4 AVC
Аудио кодек: AAC
Видео: MPEG-4 AVC (x264), 640x360, ~500 kbps, 23.976 fps
Аудио: AAC LC, 44.1 KHz, 2 ch, 128 Kbps
Cубтитры: отсутствуют
в 2012 году Джереми Дэвис был отмечен премией в номинации «Лучший приглашённый актёр в драматическом телесериале
Банши… Что Вам приходит на ум, когда слышите это слово? Да, думаю как и мне, абсолютно ничего.
Начал смотреть первый сезон сериала, сразу же после первого сезона Декстера и скажу Вам, есть с чем сравнивать.
Да, фильм оправдывает свой рейтинг, он в общем-то не плох, но очень много ляпов, что свойственно американским сериалам.
Если в Декстере, мы видим героя, который, как и все, может ошибаться и обладает недостатками, то здесь главный герой, как и его «бывшая — настоящая», просто «Терминатор». Он не обладает недостатками, в него бандиты не попадают» с метра», вырубает всех без разницы, кулаками или пистолетом. К концу первого сезона он убил столько негодяев, что кажется в их городке, как они говорят маленьком, что и показано в самом фильме, ведь там только 4 копа, ну ладно 3, не осталось и 30 человек и так можно продолжать до бесконечности. В фильме очень много сцен +18 как и в «Игре престолов», и у меня этот фильм, как и «ИП», после первого сезона отправляется в ящик, откуда я его никогда не достану — корзину и смотреть дальше думаю нету смысла, но, как мне кажется, кого-нибудь из окружения главного героя или же его самого в других сезонах все-таки убьют, но это уже совсем другая история.
5 из 10
Формат : MPEG-4
Идентификатор кодека : M4V (isom/iso2/avc1)
Размер файла : 201 Мбайт
Продолжительность : 44 м.
Режим общего битрейта : Переменный
Общий поток : 634 Кбит/сек
Программа кодирования : Lavf53.19.0
Видео
Идентификатор : 1
Формат : AVC
Формат/Информация : Advanced Video Codec
Профиль формата : [email protected]
Параметр CABAC формата : Да
Параметр ReFrames формата : 8 кадров
Идентификатор кодека : avc1
Идентификатор кодека/Информация : Advanced Video Coding
Продолжительность : 44 м.
Продолжительность оригинала : 15 м.
Битрейт : 500 Кбит/сек
Ширина : 640 пикселей
Высота : 360 пикселей
Соотношение сторон : 16:9
Режим частоты кадров : Постоянный
Частота кадров : 23,976 кадра/сек
Цветовое пространство : YUV
Субдискретизация насыщенности : 4:2:0
Битовая глубина : 8 бит
Тип развёртки : Прогрессивная
Бит/(Пиксели*Кадры) : 0.091
Размер потока : 158 Мбайт (79%)
Размер потока оригинала : 158 Мбайт (79%)
Библиотека кодирования : x264 core 130 r2273 b3065e6
Настройки программы : cabac=1 / ref=8 / deblock=1:-1:-1 / analyse=0x3:0x133 / me=umh / subme=10 / psy=1 / psy_rd=1.00:0.00 / mixed_ref=1 / me_range=24 / chroma_me=1 / trellis=2 / 8x8dct=1 / cqm=0 / deadzone=21,11 / fast_pskip=1 / chroma_qp_offset=-2 / threads=3 / lookahead_threads=1 / sliced_threads=0 / nr=0 / decimate=1 / interlaced=0 / bluray_compat=0 / constrained_intra=0 / bframes=8 / b_pyramid=2 / b_adapt=2 / b_bias=0 / direct=3 / weightb=1 / open_gop=0 / weightp=2 / keyint=250 / keyint_min=126 / scenecut=40 / intra_refresh=0 / rc_lookahead=40 / rc=2pass / mbtree=1 / bitrate=500 / ratetol=1.0 / qcomp=0.60 / qpmin=0 / qpmax=69 / qpstep=4 / cplxblur=20.0 / qblur=0.5 / ip_ratio=1.40 / aq=1:1.00
Menus : 3
mdhd_Duration : 2653989
Аудио
Идентификатор : 2
Формат : AAC
Формат/Информация : Advanced Audio Codec
Профиль формата : LC
Идентификатор кодека : 40
Продолжительность : 44 м.
Вид битрейта : Переменный
Битрейт : 128 Кбит/сек
Каналы : 2 канала
Расположение каналов : Front: L R
Частота : 48,0 КГц
Частота кадров : 46,875 кадров/сек (1024 spf)
Метод сжатия : С потерями
Размер потока : 40,5 Мбайт (20%)
Default : Да
Alternate group : 1
Menus : 3
Меню #1
Идентификатор : 3
Продолжительность : 44 м.
Язык : English
Menu For : 1,2
Меню #2
Download / Скачать

Хотите скачать бесплатно? Зарегистрируйтесь на сайте (ссылка на регистрацию). Pirat.ca - самый быстрый торрент трекер в рунете!

Как скачивать  ·   Что такое торрент  ·   Рейтинг и ограничения

Показать сообщения:    
Ответить на тему

Текущее время: Сегодня 22:35

Часовой пояс: GMT + 4



Вы не можете начинать темы
Вы не можете отвечать на сообщения
Вы не можете редактировать свои сообщения
Вы не можете удалять свои сообщения
Вы не можете голосовать в опросах
Вы не можете прикреплять файлы к сообщениям
Вы не можете скачивать файлы

▼ Вниз