ML
     
  Уважаемый Гость!
Вы можете поддержать проект и зарегистрироваться у наших партнеров - онлайн-стратегия MyLands. При регистрации в игре Вы получите код, который сможете активировать после регистрации на pirat.ca и получить 1000 дублонов.

Ваш код:
0fcd44bd35319f69313aa6e53b31c51cbff1c942
 
     

Зов Крови / Потерянная / Фэйри / Lost Girl / Сезон: 2 / Серии: 1-22 из 22 (Стив ДиМарко / Steve DiMarco...) [2011 г., фэнтези, HDRip] MVO [+ Original (Eng)] (AXN Sci-Fi Россия)

Ответить на тему
 
Автор
Сообщение

Пост 26-Апр-2016 11:23

[Q] 

somik

Легенда

-Зов Крови / Потерянная / Фэйри / Lost Girl-- Производство: Канада, Bo Series, Prodigy Pictures
Жанр: фэнтези
Год выпуска: 2011 г.
Продолжительность: 00:44:00
Мировая премьера: 4 сентября 2011
Перевод: Профессиональный (многоголосый, закадровый) [AXN Sci-Fi Россия]
Оригинальный аудиопоток: английский
Режиссер: Стив ДиМарко / Steve DiMarco...-В ролях: Анна Силк, Кристен Холден-Рид, Ксения Соло, Ричард Хоуланд, К.К. Коллинз, Зои Палмер, Кле Беннетт, Арон Тэйджер, Эммануэль Вожье, Джефф Кэссел и др.-Описание: Бо — суккуб. Выросшая в человеческой семье она не знала о своей истинной природе, считая себя фриком, а неумение контролировать сверхъестественный голод сделало ее одинокой беглянкой, оставляющей после себя череду трупов. Все меняется, когда Бо попадает в поле зрения кланов Фэйри, объяснивших ей кто она. Не желая выбирать между кланами Света и Тьмы, Бо решает занять сторону людей. Ей помогают юная русская воровка Кензи, детектив-оборотень Дайсон и доктор Лорен, занимающаяся изучением Фэйри.-
Качество видео: HDRip
Контейнер: AVI
Видео кодек: XviD
Аудио кодек: MP3
Видео: 624x352 (1.77:1), 23.976 fps, XviD build 47 ~999 kbps avg, 0.19 bit/pixel
Аудио: 48 kHz, MPEG Layer 3, 2 ch, ~128.00 kbps avg
Аудио #2: 48 kHz, MPEG Layer 3, 2 ch, ~128.00 kbps avg
Cубтитры: отсутствуют
2011 — номинация на «DGC Craft Award» в категориях:
«Художник постановщик в телевизионном сериале» — Иэн Брок за эпизод «Векс»;
«Звуковой монтаж телевизионного сериала» — Том Бджелик, Алекс Баллик, Джеймс Робб, Джон Лэйн за эпизод «Удача и смерть».
2011 — победа Ксении Соло в награде «Джемини» в категории «Лучшее выступление актрисы в роли второго плана в драматическом сериале».
Бо всю жизнь считала себя извращённым серийным убийцей высасывающем при поцелуе жизненную силу людей. Но оказалось что она «дикая» фэйри, а конкретно — суккуб, которого просто не научили пользоваться своей силой. Бо отказалась принимать сторону тёмных или светлых фэйри и стала жить сама по себе, подрабатывая частным детективом и заводя как друзей так и врагов среди «маленького народца».
Местами сериал здорово напоминал «Узы крови»: главная героиня работает частным детективом; есть связи в полиции; расследует сверхъестественные преступления; в помощницах преданная эмо-девица. Разве что там Викторию заставили метаться между двумя мужчинами, а тут Бо отдали на растерзание симпатичного оборотня, которого она заваливает в кровать каждые пол-часа экранного времени.
Вообще есть в канадских «сверхъестественных» сериалах милая наивность, лёгкость и примитивность дарящая дозу гарантированного удовольствия и позволяющая расслабиться после трудного дня. Это как женские романчики от Джеки Коллинз, ругать их бессмысленно, а мастерства чтобы понравится целевой аудитории вполне хватает.
6 из 10
Формат : AVI
Формат/Информация : Audio Video Interleave
Размер файла : 401 Мбайт
Продолжительность : 44 м.
Общий поток : 1271 Кбит/сек
Название фильма : 201 - Something Wicked This Fae Comes
Программа кодирования : VirtualDubMod 1.5.10.2 (build 2542/release)
Видео
Идентификатор : 0
Формат : MPEG-4 Visual
Профиль формата : Advanced [email protected]
Параметр BVOP формата : 2
Параметр QPel формата : Нет
Параметр GMC формата : Без точки перехода
Параметр матрицы формата : Default (H.263)
Идентификатор кодека : XVID
Идентификатор кодека/Подсказка : XviD
Продолжительность : 44 м.
Битрейт : 1001 Кбит/сек
Ширина : 624 пикселя
Высота : 352 пикселя
Соотношение сторон : 16:9
Частота кадров : 23,976 (23976/1000) кадра/сек
Цветовое пространство : YUV
Субдискретизация насыщенности : 4:2:0
Битовая глубина : 8 бит
Тип развёртки : Прогрессивная
Метод сжатия : С потерями
Бит/(Пиксели*Кадры) : 0.190
Размер потока : 315 Мбайт (79%)
Библиотека кодирования : XviD 1.2.0.dev47 (UTC 2006-11-01)
Аудио #1
Идентификатор : 1
Формат : MPEG Audio
Версия формата : Version 1
Профиль формата : Layer 3
Идентификатор кодека : 55
Идентификатор кодека/Подсказка : MP3
Продолжительность : 44 м.
Вид битрейта : Постоянный
Битрейт : 128 Кбит/сек
Каналы : 2 канала
Частота : 48,0 КГц
Метод сжатия : С потерями
Размер потока : 40,4 Мбайт (10%)
Выравнивание : Соединение по промежуткам
Продолжительность промежутка : 42 мс. (1,00 видеокадр)
Время предзагрузки промежутка : 504 мс.
Библиотека кодирования : LAME3.97
Настройки программы : -m s -V 4 -q 2 -lowpass 17 -b 128
Аудио #2
Идентификатор : 2
Формат : MPEG Audio
Версия формата : Version 1
Профиль формата : Layer 3
Идентификатор кодека : 55
Идентификатор кодека/Подсказка : MP3
Продолжительность : 44 м.
Вид битрейта : Постоянный
Битрейт : 128 Кбит/сек
Каналы : 2 канала
Частота : 48,0 КГц
Метод сжатия : С потерями
Размер потока : 40,4 Мбайт (10%)
Выравнивание : Соединение по промежуткам
Продолжительность промежутка : 42 мс. (1,00 видеокадр)
Время предзагрузки промежутка : 504 мс.
Библиотека кодирования : LAME3.97
Настройки программы : -m s -V 4 -q 2 -lowpass 17 -b 128
Download / Скачать

Хотите скачать бесплатно? Зарегистрируйтесь на сайте (ссылка на регистрацию). Pirat.ca - самый быстрый торрент трекер в рунете!

Как скачивать  ·   Что такое торрент  ·   Рейтинг и ограничения

Показать сообщения:    
Ответить на тему

Текущее время: Сегодня 02:12

Часовой пояс: GMT + 4



Вы не можете начинать темы
Вы не можете отвечать на сообщения
Вы не можете редактировать свои сообщения
Вы не можете удалять свои сообщения
Вы не можете голосовать в опросах
Вы не можете прикреплять файлы к сообщениям
Вы не можете скачивать файлы

▼ Вниз