ML
     
  Уважаемый Гость!
Вы можете поддержать проект и зарегистрироваться у наших партнеров - онлайн-стратегия MyLands. При регистрации в игре Вы получите код, который сможете активировать после регистрации на pirat.ca и получить 1000 дублонов.

Ваш код:
34514219cfad5497a1822ecc1269bea77988f9aa
 
     

Государственный секретарь / Madam Secretary / Сезон: 1 / Серии: 1-22 из 22 (Эрик Столц / Eric Stoltz) [2014 г., Политическая драма, WEB-DLRip] DVO (Kiitos)

Ответить на тему
 
Автор
Сообщение

Пост 27-Апр-2016 10:04

[Q] 

somik

Легенда

-Государственный секретарь / Madam Secretary-- Производство: США,
Жанр: Политическая драма
Год выпуска: 2014 г.
Продолжительность: 00:44:00
Мировая премьера: 21 сентября 2014
Перевод: Любительский (двухголосый, закадровый) [Kiitos]
Режиссер: Эрик Столц / Eric Stoltz-В ролях: Теа Леони, Тимоти Дэйли, Патина Миллер, Джеффри Аренд, Эрих Берген, Кэтрин Герцер, Эван Роу, Желько Иванек, Биби Нойвирт-Описание: История о государственном секретаре. После нескольких лет жизни вдали от ЦРУ, ей вновь приходится вернуться на политическую арену, где у нее получается решать вопросы даже в тех случаях, когда ради этого необходимо играть не по правилам.-
Качество видео: WEB-DLRip
Контейнер: AVI
Видео кодек: XviD
Аудио кодек: MP3
Видео: 720x400 (1.80:1), 23.976 fps, XviD build 50 ~1327 kbps avg, 0.19 bit/pixel
Аудио: 48 kHz, MPEG Layer 3, 2 ch, ~192.00 kbps avg
Cубтитры: отсутствуют
«Мадам госсекретарь» (англ. Madam Secretary) — американский телевизионный сериал, созданный Барбарой Холл с Теа Леони в главной роли, показанный на CBS в сезоне 2014—2015 годов. В центре сюжета находится Элизабет Маккорд, недавно назначенная на пост госсекретаря, которая ежедневно сталкивается со сложными миссиями и ведет глобальные переговоры. Лауреат премий «Тони» и «Эмми», Биби Нойвирт играет роль начальника её штаба. Также лауреат «Эмми», Желько Иванек, после съемки пилотного эпизода присоединился к шоу в роли начальника штаба президента.
9 мая 2014 года, CBS заказал съемки первого сезона сериала для трансляции в телесезоне 2014—2015 годов, по воскресеньям, начиная с 21 сентября 2014 года. Пилотный эпизод получил смешанные отзывы от критиков, а на рейтинговой стороне собрал лишь 1,9 в демографической категории 18-49, при более четырнадцати миллионах зрителей, большинство из которых было старше пятидесяти лет. 27 октября 2014 года канал продлил сериал на полный сезон. 12 января 2015 года канал продлил сериал на второй сезон. 25 марта 2016 года CBS продлил сериал на третий сезон
Чтобы вам понравился этот сериал нужно совпадение двух факторов. Во-первых, это типичный представитель жанра: красивые актеры, милые характеры персонажей, сюжет простой, но динамичный и с небольшой долей интриги и победой добра над злом. Во-вторых, это история про выдуманную страну, с выдуманными чиновниками и их функциями, которая существует в выдуманном мире. Если вы умеете абстрагироваться и любите простенькие, но добротные сериалы, смотрите.
Да, наверняка, этот сериал задумывался коварным предвыборным штабом Клинтон для зомбирования американских избирателей. Но нам то какое дело?) Сериалы — не тот канал коммуникации, через который стоит ожидать получения достоверных сведений о мире и тем более политике. Но тема интересная, почему бы не пофантазировать о том, что было бы, если бы президент США считал бы своим долгом менять мир к лучшему, а госсекретарь посвящала бы все время улаживанию конфликтов. 43 минуты сказки о мире с добрыми, честными людьми на верхушке политической системы. Почему бы и нет?
Только не забывайте, что никто не может сделать из вас зомби, если вы не зомби) Пропаганда сегодня — неотъемлемая часть нашей жизни. Бесполезно с ней бороться. Если вы не можете абстрагироваться, просто не смотрите. По названию уже понятно, чего ждать, и очень глупо ругать сериал за то, что он полностью оправдывает ожидания.
Формат : AVI
Формат/Информация : Audio Video Interleave
Размер файла : 500 Мбайт
Продолжительность : 45 м.
Общий поток : 1529 Кбит/сек
Название фильма : MadamSecretary.s01.e01.[pirat.ca]
Программа кодирования : VirtualDubMod 1.5.10.2 (build 2540/release)
Видео
Идентификатор : 0
Формат : MPEG-4 Visual
Профиль формата : Advanced [email protected]
Параметр BVOP формата : Нет
Параметр QPel формата : Нет
Параметр GMC формата : Без точки перехода
Параметр матрицы формата : Default (H.263)
Идентификатор кодека : XVID
Идентификатор кодека/Подсказка : XviD
Продолжительность : 45 м.
Битрейт : 1328 Кбит/сек
Ширина : 720 пикселей
Высота : 400 пикселей
Соотношение сторон : 16:9
Частота кадров : 23,976 (23976/1000) кадра/сек
Цветовое пространство : YUV
Субдискретизация насыщенности : 4:2:0
Битовая глубина : 8 бит
Тип развёртки : Прогрессивная
Метод сжатия : С потерями
Бит/(Пиксели*Кадры) : 0.192
Размер потока : 434 Мбайт (87%)
Библиотека кодирования : XviD 1.2.1 (UTC 2008-12-04)
Аудио
Идентификатор : 1
Формат : MPEG Audio
Версия формата : Version 1
Профиль формата : Layer 3
Режим : Joint stereo
Идентификатор кодека : 55
Идентификатор кодека/Подсказка : MP3
Продолжительность : 45 м.
Вид битрейта : Постоянный
Битрейт : 192 Кбит/сек
Каналы : 2 канала
Частота : 48,0 КГц
Метод сжатия : С потерями
Размер потока : 62,8 Мбайт (13%)
Выравнивание : Соединение по промежуткам
Продолжительность промежутка : 42 мс. (1,00 видеокадр)
Время предзагрузки промежутка : 504 мс.
Download / Скачать

Хотите скачать бесплатно? Зарегистрируйтесь на сайте (ссылка на регистрацию). Pirat.ca - самый быстрый торрент трекер в рунете!

Как скачивать  ·   Что такое торрент  ·   Рейтинг и ограничения

somik ®

Легенда

26601

Пост 27-Апр-2016 10:14 (спустя 9 минут)

[Q] 

Если не обращать внимание на политику и не говорить про себя: "Эти американцы опять себя ангелами представляют", а смотреть сериал как простой роман, фантастику - Вам понравится. Интриги и неординарные решения, дружба и предательство, неожиданные обороты, ЦРУ и любовь - всё в допустимой норме. Сценарий написан талантливо, актёрская работа на высоте... Во всяком случае, можно скачать пару серий, а потом решать. Да и из-за размера, я думаю, будет "золотое скачивание"... Мне очень понравилось, жду, когда второй сезон додублируют: не люблю по одной серии смотреть - склероз... aa На любителя

_________________
Всё когда-нибудь уже было... В интернете!
[Профиль]  [ЛС] 
Показать сообщения:    
Ответить на тему

Текущее время: Сегодня 07:51

Часовой пояс: GMT + 4



Вы не можете начинать темы
Вы не можете отвечать на сообщения
Вы не можете редактировать свои сообщения
Вы не можете удалять свои сообщения
Вы не можете голосовать в опросах
Вы не можете прикреплять файлы к сообщениям
Вы не можете скачивать файлы

▼ Вниз