ML
     
  Уважаемый Гость!
Вы можете поддержать проект и зарегистрироваться у наших партнеров - онлайн-стратегия MyLands. При регистрации в игре Вы получите код, который сможете активировать после регистрации на pirat.ca и получить 1000 дублонов.

Ваш код:
c89b4b6523eaac3173e9a9c062ac1a19db575961
 
     

Менталист / The Mentalist / Сезон: 1-7 / Серии: 1-151 (Бруно Хеллер / Bruno Heller) [2008 г., криминал, детектив, драма, триллер, BDRip, 720p] Dub [+ Original (Eng)] (ТВ3)

Ответить на тему
 
Автор
Сообщение

Пост 27-Апр-2016 20:20

[Q] 

scifius

Лоцман

-Менталист / The Mentalist-- Производство: США, Primrose Hill Productions
Жанр: криминал, детектив, драма, триллер
Год выпуска: 2008-2015г.
Продолжительность: 00:43:00
Мировая премьера: 23 сентября 2008
Российская премьера: 12 апреля 2010
Дата выхода DVD: 30 января 2014
Перевод: Профессиональный (полное дублирование) [ТВ3]
Оригинальный аудиопоток: английский
Режиссер: Бруно Хеллер / Bruno Heller-Сезоны: 1-7
Серии: 1-151-В ролях:
Саймон Бейкер (Simon Baker) - Партик Джейн [Менталист]
Робин Танни (Robin Tunney) - Тереза Лисбон
Тим Кенг (Tam Kang) - Кимбалл Чо
Овайн Йомэн (Owain Yeoman) - Уэйн Ригсби
Аманда Ригетти (Amanda Righetti) - Грэйс Ван Пелт
-Описание: Патрик Джейн — детектив и независимый консультант из Калифорнийского Бюро Расследований (КБР), он использует свои отточенные, как лезвие, навыки наблюдения для раскрытия тяжких преступлений. В самом Бюро Джейн известен за частые нарушения протокола, а также за его звездное прошлое: он работал медиумом, однако теперь сам признает, что симулировал паранормальные способности…-
Качество видео: BDRip
Контейнер: MKV
Стандарт разрешения: 720p
Видео кодек: MPEG4 AVC
Аудио кодек: AC3
Видео: 1280x720, ~4000kbps, 23.796fps
Аудио: 192kbps, 2ch, 48kHz
Аудио #2: 384kbps, 6ch, 48kHz
Cубтитры: отсутствуют
Видео
Идентификатор : 1
Формат : AVC
Формат/Информация : Advanced Video Codec
Профиль формата : [email protected]
Параметр CABAC формата : Нет
Параметр ReFrames формата : 2 кадра
Идентификатор кодека : V_MPEG4/ISO/AVC
Продолжительность : 43 м.
Битрейт : 4042 Кбит/сек
Ширина : 1280 пикселей
Высота : 720 пикселей
Соотношение сторон : 16:9
Режим частоты кадров : Постоянный
Частота кадров : 23,976 кадра/сек
Цветовое пространство : YUV
Субдискретизация насыщенности : 4:2:0
Битовая глубина : 8 бит
Тип развёртки : Прогрессивная
Бит/(Пиксели*Кадры) : 0.183
Размер потока : 1,21 Гбайт (86%)
Язык : English
Default : Да
Forced : Нет
Цветовой диапазон : Limited
Основные цвета : BT.709
Характеристики трансфера : BT.709
Коэффициенты матрицы : BT.709
Аудио #1
Идентификатор : 2
Формат : AC-3
Формат/Информация : Audio Coding 3
Расширение режима : CM (complete main)
Параметр Endianness формата : Big
Идентификатор кодека : A_AC3
Продолжительность : 43 м.
Вид битрейта : Постоянный
Битрейт : 192 Кбит/сек
Каналы : 2 канала
Расположение каналов : Front: L R
Частота : 48,0 КГц
Частота кадров : 31,250 кадров/сек (1536 spf)
Метод сжатия : С потерями
Размер потока : 59,1 Мбайт (4%)
Заголовок : Дубляж (ТВ3)
Язык : Russian
Default : Да
Forced : Нет
Аудио #2
Идентификатор : 3
Формат : AC-3
Формат/Информация : Audio Coding 3
Расширение режима : CM (complete main)
Параметр Endianness формата : Big
Идентификатор кодека : A_AC3
Продолжительность : 43 м.
Вид битрейта : Постоянный
Битрейт : 384 Кбит/сек
Каналы : 6 каналов
Расположение каналов : Front: L C R, Side: L R, LFE
Частота : 48,0 КГц
Частота кадров : 31,250 кадров/сек (1536 spf)
Метод сжатия : С потерями
Размер потока : 118 Мбайт (8%)
Заголовок : Оригинал
Язык : English
Default : Нет
Forced : Нет
Download / Скачать

Хотите скачать бесплатно? Зарегистрируйтесь на сайте (ссылка на регистрацию). Pirat.ca - самый быстрый торрент трекер в рунете!

Как скачивать  ·   Что такое торрент  ·   Рейтинг и ограничения



Последний раз редактировалось: scifius (2016-04-28 08:49), всего редактировалось 5 раз(а)

Letyoha3

Легенда

1105

Пост 27-Апр-2016 20:34 (спустя 13 минут)

[Q] 

Неплохой сериал Спасибо!!!

_________________
Не стреляйте в пианиста - играет, как может
[Профиль]  [ЛС] 

sierense

Пост 27-Апр-2016 20:47 (спустя 13 минут)

[Q] 

один сезон одна серия?
[Профиль]  [ЛС] 

scifius ®

Лоцман

49

Пост 27-Апр-2016 21:00 (спустя 12 минут)

[Q] 

748283один сезон одна серия?
Исправил! Спасибо!!!

_________________
[Профиль]  [ЛС] 

Пост 28-Апр-2016 09:49 (спустя 12 часов)

Топик был перенесен из форума Зарубежные сериалы (Трюм) в форум Зарубежные сериалы
Андря
 

DDoS55

Флибустьер

2253

Пост 19-Май-2016 03:41 (спустя 21 день)

[Q] 

Лови бочку

_________________
включайте в торрент клиенте: DHT, обмен пирами, шифрование, ip-фильтр
[Профиль]  [ЛС] 
Показать сообщения:    
Ответить на тему

Текущее время: Сегодня 22:30

Часовой пояс: GMT + 4



Вы не можете начинать темы
Вы не можете отвечать на сообщения
Вы не можете редактировать свои сообщения
Вы не можете удалять свои сообщения
Вы не можете голосовать в опросах
Вы не можете прикреплять файлы к сообщениям
Вы не можете скачивать файлы

▼ Вниз