ML
     
  Уважаемый Гость!
Вы можете поддержать проект и зарегистрироваться у наших партнеров - онлайн-стратегия MyLands. При регистрации в игре Вы получите код, который сможете активировать после регистрации на pirat.ca и получить 1000 дублонов.

Ваш код:
a01a592a88af5f9996a6d1baec61b18a1769954d
 
     

Грошовые Ужасы / Бульварные ужасы / Страшные сказки / Penny Dreadful / Сезон: 3 / Серии: 9 из 9 (Джеймс Хоуз / James Hawes, ...) [2016 г., ужасы, драма, WEBRip] MVO (AlexFilm) + Original (Eng) [Финал сериала]

Ответить на тему
 
Автор
Сообщение

Пост 29-Апр-2016 15:22

[Q] 

kugesan

-Грошовые Ужасы / Бульварные ужасы / Страшные сказки
«There is some thing within us all»
-- Производство: США, Ирландия, Великобритания
Жанр: ужасы, драма
Год выпуска: 2016 г.-Мировая премьера: 11 мая 2014
Российская премьера: 12 мая 2014-Озвучка: Студия
Перевод: Многоголосый закадровый, профессиональный
Оригинальный аудиопоток: английский-Автор перевода: Константин Кривоногов
Роли озвучивали: Татьяна Манетина, Ирина Воронова, Владимир Курдов, Михаил Суслов, Рустам Шайхиев, Владислав Данилов
Монтаж и сведение звука: Михаил Шорыгин
Постер: Андрей Шапал-Режиссер: Джеймс Хоуз / James Hawes, Брайан Кирк / Brian Kirk, Пако Кабесас / Paco Cabezas, ...-В ролях: Тимоти Далтон, Ева Грин, Джош Хартнетт, Рори Киннер, Хелен МакКрори, Билли Пайпер, Гарри Тредэвэй, Рив Карни, Алан Армстронг, Рик Берн...-Описание:
Лондон, сентябрь 1891 года. Закат эпохи викторианской Англии. Разгул преступности и разврата, случившийся ввиду паршивой политики правительства, достиг апогея. Люди боятся выходить на улицы. И совсем невовремя для полиции маньяк растерзал в клочья женщину с ребёнком, из-за чего начали курсировать слухи о возвращении Джека-Потрошителя.
В этот же самый момент в городе находился заезжий цирк-шапито, где звездой был стрелок-американец Итан Чандлер. Грани таланта Итана сверкнули так ярко, что Итан получил предложение ночного задания от таинственной Ванессы Айвз. Но он и представить не мог, что в ходе задания выяснит, что ад был вовсе не под землёй, а в самом сердце Лондона. К делу подключается юный анатом Виктор Франкенштейн, после чего события принимают совершенно неожиданный оборот...-Сезон: 3
Серии: 6 из 10 серий
Продолжительность: ~ 01:00:00 мин серия-
Качество видео: WEBRip
Контейнер: AVI
Видео кодек: XviD
Аудио кодек: MP3
Видео: MPEG-4 Visual at 1403 Кбит/сек: 720 x 400 (1.800) at 23.976 fps: 0.20 Бит/Пиксели
Аудио Rus: MPEG Audio at 128 Кбит/сек, 2 канала, 48,0 КГц |AlexFilm|
Аудио Eng: MPEG Audio at 128 Кбит/сек, 2 канала, 48,0 КГц |Original|
Cубтитры: отсутствуют
- -
  • День, когда Теннисон умер (The Day Tennyson Died)
  • Злодеи повсюду (Predators Far and Near)
  • И да переплетётся добро и зло (Good and Evil Braided Be)
  • Не больше травинки (A Blade of Grass)
  • Этот мир - наш ад (This World Is Our Hell)
  • Безжалостнее зверя нет (No Beast So Fierce)
  • Отлив (Ebb Tide)
  • Вечная ночь (Perpetual Night)
  • Благословенная тьма (The Blessed Dark)
-
Общее
Полное имя : E:\_Сериалы\_Сериалы\Бульварные ужасы\Penny Dreadful - Season 3 (AlexFilm) WEBRip\Penny.Dreadful.s03e01.WEBRip.Rus.Eng.AlexFilm.avi
Формат : AVI
Формат/Информация : Audio Video Interleave
Размер файла : 711 Мбайт
Продолжительность : 59 м.
Общий поток : 1673 Кбит/сек
Название фильма : Penny Dreadful 3x01 @ AlexFilm
Программа кодирования : VirtualDubMod 1.5.10.2 (build 2540/release)
Библиотека кодирования : VirtualDubMod build 2540/release
Видео
Идентификатор : 0
Формат : MPEG-4 Visual
Профиль формата : Advanced [email protected]
Параметр BVOP формата : Нет
Параметр QPel формата : Нет
Параметр GMC формата : Без точки перехода
Параметр матрицы формата : Default (H.263)
Идентификатор кодека : XVID
Идентификатор кодека/Подсказка : XviD
Продолжительность : 59 м.
Битрейт : 1403 Кбит/сек
Ширина : 720 пикселей
Высота : 400 пикселей
Соотношение сторон : 16:9
Частота кадров : 23,976 (23976/1000) кадра/сек
Цветовое пространство : YUV
Субдискретизация насыщенности : 4:2:0
Битовая глубина : 8 бит
Тип развёртки : Прогрессивная
Метод сжатия : С потерями
Бит/(Пиксели*Кадры) : 0.203
Размер потока : 596 Мбайт (84%)
Библиотека кодирования : XviD 73
Аудио #1
Идентификатор : 1
Формат : MPEG Audio
Версия формата : Version 1
Профиль формата : Layer 3
Режим : Joint stereo
Расширение режима : MS Stereo
Идентификатор кодека : 55
Идентификатор кодека/Подсказка : MP3
Продолжительность : 59 м.
Вид битрейта : Постоянный
Битрейт : 128 Кбит/сек
Каналы : 2 канала
Частота : 48,0 КГц
Метод сжатия : С потерями
Размер потока : 54,4 Мбайт (8%)
Выравнивание : Соединение по промежуткам
Продолжительность промежутка : 42 мс. (1,00 видеокадр)
Время предзагрузки промежутка : 504 мс.
Заголовок : Russian (AlexFilm)
Библиотека кодирования : LAME3.99r
Настройки программы : -m j -V 4 -q 3 -lowpass 18 -b 128
Аудио #2
Идентификатор : 2
Формат : MPEG Audio
Версия формата : Version 1
Профиль формата : Layer 3
Режим : Joint stereo
Расширение режима : MS Stereo
Идентификатор кодека : 55
Идентификатор кодека/Подсказка : MP3
Продолжительность : 59 м.
Вид битрейта : Постоянный
Битрейт : 128 Кбит/сек
Каналы : 2 канала
Частота : 48,0 КГц
Метод сжатия : С потерями
Размер потока : 54,4 Мбайт (8%)
Выравнивание : Соединение по промежуткам
Продолжительность промежутка : 42 мс. (1,00 видеокадр)
Время предзагрузки промежутка : 504 мс.
Заголовок : English
Библиотека кодирования : LAME3.90.3
-
-Скриншоты:
-
-
Раздача ведётся путём добавления новых серий; при каждом добавлении создаётся новый торрент.
Чтобы начать докачку новой серии, пользователям необходимо сделать следующее:
1. остановить скачивание,
2. удалить старый торрент у себя из клиента (старые серии удалять не надо),
3. скачать новый торрент и запустить его у себя в клиенте вместо старого, при этом указать клиенту путь в старую папку, куда и должно происходить скачивание новых серий.
Ваш клиент при этом должен произвести хеширование (проверку) старой папки (если не производит сам - помогите ему сделать это), и будет докачивать только те серии которых у вас ещё нет. Старые серии при этом не удаляются, а продолжают раздаваться!
Eсли вы уже удалили старые серии, то предотвратить повторную закачку старых серий можно, отжав галочку в соответствующих местах при запуске нового торрента. По возможности, желательно не удалять старые серии как можно дольше, чтобы релизёр не столько продолжал раздавать старые серии, а смог сконцентрироваться на новых.
Совет для тех, кто не хочет ждать перехеширования:
Создайте ещё одну папку рядом с папкой сериала (рядом, а не в ней!!!). Каждую новую серию после удачной загрузки копируйте в новую папку так чтобы ваша основная папка всегда была пуста. Когда ваш новый торрент предложит вам закачать все файлы, выберете только последнюю. Для сидирования же укажите адрес новой папки.
Как закачать отдельный файл из торрента или докачать ранее пропущенные файлы торрента!
-
1. Открыть торрент
2. Снять галки с тех файлов торрента, которые мы не хотим закачивать. Оставляем только на нужных нам файлах (файле).
3. Нажать О.К.
В клиенте utorrent
Инструкция
1) Открыть торрент

2) Снять галки с тех файлов торрента, которые мы не хотим закачивать:
* либо вручную, снимая с каждого файла галку( скрин №1)
* либо, нажав кнопку "Снять метки (Select None)", сняв сразу со всех файлов(скрин №2)
№1

№2

Оставляем только на нужных нам файлах (файле).

3)Нажать О.К
-Добавлена девятая, заключительная, серия третьего сезона-Приятного просмотра!!!-
Download / Скачать

Хотите скачать бесплатно? Зарегистрируйтесь на сайте (ссылка на регистрацию). Pirat.ca - самый быстрый торрент трекер в рунете!

Как скачивать  ·   Что такое торрент  ·   Рейтинг и ограничения



Последний раз редактировалось: kugesan (2016-06-30 19:03), всего редактировалось 9 раз(а)

Opium

Шкипер

Пост 29-Апр-2016 23:29 (спустя 8 часов)

[Q] 

Спасибо огромное! Я и не ожидал, что так скоро выйдет 3 сезон! Один из моих любимейших сериалов!
[Профиль]  [ЛС] 

kugesan ®

56691

Пост 11-Май-2016 18:10 (спустя 11 дней)

[Q] 

Добавлена девятая, заключительная, серия третьего сезона
Приятного просмотра!!!

_________________

В мире две бесконечности: вселенная и человеческая глупость - Альберт Эйнштен
«Можно вытащить человека из грязи, но нельзя вытащить грязь из человека»!
[Профиль]  [ЛС] 
Показать сообщения:    
Ответить на тему

Текущее время: Сегодня 09:51

Часовой пояс: GMT + 4



Вы не можете начинать темы
Вы не можете отвечать на сообщения
Вы не можете редактировать свои сообщения
Вы не можете удалять свои сообщения
Вы не можете голосовать в опросах
Вы не можете прикреплять файлы к сообщениям
Вы не можете скачивать файлы

▼ Вниз